<?xml version="1.0" standalone="no"?>
<!DOCTYPE svg PUBLIC "-//W3C//DTD SVG 1.1//EN" "http://www.w3.org/Graphics/SVG/1.1/DTD/svg11.dtd" >
<svg xmlns="http://www.w3.org/2000/svg">
  <metadata>Created by iconfont</metadata>
  <defs>
  <font id="vikacg_fonts" horiz-adv-x="1024">
    <font-face
      font-family="vikacg_fonts"
      font-weight="400"
      font-stretch="normal"
      units-per-em="1024"
      ascent="896"
      descent="-128"
    />
      <missing-glyph />
      
      <glyph glyph-name="translate" unicode="&#59638;" d="M549.12 253.013333l-108.373333 107.093334 1.28 1.28A747.52 747.52 0 0 1 600.32 640H725.333333V725.333333h-298.666666V810.666667H341.333333v-85.333334H42.666667v-85.333333h476.586666C490.666667 558.08 445.44 480 384 411.733333 344.32 455.68 311.466667 503.893333 285.44 554.666667h-85.333333c31.146667-69.546667 73.813333-135.253333 127.146666-194.56l-217.173333-214.186667L170.666667 85.333333l213.333333 213.333334 132.693333-132.693334 32.426667 87.04M789.333333 469.333333h-85.333333L512-42.666667h85.333333l47.786667 128h202.666667L896-42.666667h85.333333l-192 512m-111.786666-298.666666l69.12 184.746666L815.786667 170.666667h-138.24z"  horiz-adv-x="1024" />
      
      <glyph glyph-name="emoji" unicode="&#59157;" d="M512 149.333333c99.413333 0 183.466667 62.293333 218.026667 149.333334H293.973333c34.133333-87.04 118.613333-149.333333 218.026667-149.333334M362.666667 426.666667A64 64 0 0 1 426.666667 490.666667 64 64 0 0 1 362.666667 554.666667 64 64 0 0 1 298.666667 490.666667 64 64 0 0 1 362.666667 426.666667m298.666666 0A64 64 0 0 1 725.333333 490.666667 64 64 0 0 1 661.333333 554.666667 64 64 0 0 1 597.333333 490.666667a64 64 0 0 1 64-64M512 42.666667a341.333333 341.333333 0 0 0-341.333333 341.333333 341.333333 341.333333 0 0 0 341.333333 341.333333 341.333333 341.333333 0 0 0 341.333333-341.333333 341.333333 341.333333 0 0 0-341.333333-341.333333m0 768C276.053333 810.666667 85.333333 618.666667 85.333333 384a426.666667 426.666667 0 0 1 426.666667-426.666667 426.666667 426.666667 0 0 1 426.666667 426.666667A426.666667 426.666667 0 0 1 512 810.666667z"  horiz-adv-x="1024" />
      
      <glyph glyph-name="exchange" unicode="&#59032;" d="M779.2 715.136c-12.8 12.8-32 12.8-44.8 0-12.8-12.8-12.8-32 0-44.8l136-136H96c-17.6 0-32-14.4-32-32s14.4-32 32-32h825.002667a42.666667 42.666667 0 0 1 30.165333 72.832l-171.968 171.946667zM928 310.336H102.997333a42.666667 42.666667 0 0 1-30.165333-72.832l171.968-171.968c12.8-12.8 32-12.8 44.8 0 12.8 12.8 12.8 32 0 44.8l-134.4 136H928c17.6 0 32 14.4 32 32s-14.4 32-32 32z"  horiz-adv-x="1024" />
      
      <glyph glyph-name="incognito" unicode="&#60888;" d="M728 341.984q-60 0-104.992-38.016t-59.008-94.016q-52 22.016-104 0-14.016 56-60 94.016t-104 38.016q-70.016 0-119.008-50.016T128 170.976t48.992-120.992 116.992-50.016 116 44.992 52 112.992q18.016 12 38.016 14.016 32 4 62.016-16 6.016-66.016 52.992-111.008t115.008-44.992 116.992 50.016T896 170.976t-48.992 120.992-119.008 50.016zM296 48q-50.016 0-84.992 36T176 171.008t35.008 86.016 84.992 35.008 84.992-35.008T416 171.008t-35.008-87.008T296 48z m432 0q-50.016 0-84.992 36T608 171.008t35.008 86.016 84.992 35.008 84.992-35.008 35.008-86.016-35.008-87.008T728 48zM938.016 448H86.016v-64h852v64zM662.016 784Q656 800 640 807.008t-34.016 0.992l-94.016-32-98.016 32q-16 6.016-32-2.016t-22.016-24l-104-270.016h512l-106.016 272z"  horiz-adv-x="1024" />
      
      <glyph glyph-name="add-box" unicode="&#59018;" d="M810.666667 768H213.333333c-46.933333 0-85.333333-38.4-85.333333-85.333333v-597.333334c0-46.933333 38.4-85.333333 85.333333-85.333333h597.333334c46.933333 0 85.333333 38.4 85.333333 85.333333V682.666667c0 46.933333-38.4 85.333333-85.333333 85.333333z m0-682.666667H213.333333V682.666667h597.333334v-597.333334z m-341.333334 85.333334h85.333334v170.666666h170.666666v85.333334h-170.666666V597.333333h-85.333334v-170.666666H298.666667v-85.333334h170.666666v-170.666666z"  horiz-adv-x="1024" />
      
      <glyph glyph-name="power" unicode="&#59485;" d="M706.56 663.893333l-61.866667-61.866666A254.677333 254.677333 0 0 0 768 384a256 256 0 0 0-256-256 256 256 0 0 0-256 256c0 92.586667 49.493333 173.226667 122.88 218.453333L317.44 663.893333A339.669333 339.669333 0 0 1 170.666667 384a341.333333 341.333333 0 0 1 341.333333-341.333333 341.333333 341.333333 0 0 1 341.333333 341.333333c0 116.053333-58.026667 218.453333-146.773333 279.893333M554.666667 768h-85.333334v-426.666667h85.333334"  horiz-adv-x="1024" />
      
      <glyph glyph-name="pause" unicode="&#59446;" d="M597.333333 85.333333h170.666667V682.666667h-170.666667M256 85.333333h170.666667V682.666667H256v-597.333334z"  horiz-adv-x="1024" />
      
      <glyph glyph-name="play" unicode="&#59469;" d="M341.333333 676.693333v-597.333333l469.333334 298.666667-469.333334 298.666666z"  horiz-adv-x="1024" />
      
      <glyph glyph-name="vpn" unicode="&#59686;" d="M384 682.666667h256l-128-128-128 128m64-412.16c-12.8-14.506667-21.333333-35.84-21.333333-57.173334a85.333333 85.333333 0 0 1 85.333333-85.333333 85.333333 85.333333 0 0 1 85.333333 85.333333c0 23.466667-9.386667 44.8-25.173333 60.16l60.586667 60.586667C663.466667 302.933333 682.666667 260.266667 682.666667 213.333333a170.666667 170.666667 0 0 0-170.666667-170.666666 170.666667 170.666667 0 0 0-170.666667 170.666666c0 45.653333 17.92 87.04 46.933334 117.333334l-0.426667 0.426666 302.08 301.653334A170.24 170.24 0 0 0 810.666667 682.666667a170.666667 170.666667 0 0 0 170.666666-170.666667 170.666667 170.666667 0 0 0-170.666666-170.666667c-46.933333 0-89.6 19.2-120.746667 49.92l60.586667 60.586667c15.36-15.786667 36.693333-25.173333 60.16-25.173333a85.333333 85.333333 0 0 1 85.333333 85.333333 85.333333 85.333333 0 0 1-85.333333 85.333333c-23.466667 0-44.8-9.386667-60.16-25.173333l-302.506667-301.653333M273.493333 572.16C258.133333 587.946667 236.8 597.333333 213.333333 597.333333a85.333333 85.333333 0 0 1-85.333333-85.333333 85.333333 85.333333 0 0 1 85.333333-85.333333c23.466667 0 44.8 9.386667 60.16 25.173333l60.586667-60.586667C302.933333 360.533333 260.266667 341.333333 213.333333 341.333333a170.666667 170.666667 0 0 0-170.666666 170.666667 170.666667 170.666667 0 0 0 170.666666 170.666667c47.36 0 90.026667-19.2 120.746667-49.92l117.76-117.76-60.586667-60.586667-117.76 117.76z"  horiz-adv-x="1024" />
      
      <glyph glyph-name="add-folder" unicode="&#59217;" d="M426.666667 725.333333l85.333333-85.333333h341.333333a85.333333 85.333333 0 0 0 85.333334-85.333333v-426.666667a85.333333 85.333333 0 0 0-85.333334-85.333333H170.666667a85.333333 85.333333 0 0 0-85.333334 85.333333V640c0 47.36 37.973333 85.333333 85.333334 85.333333h256m213.333333-213.333333v-128h-128v-85.333333h128v-128h85.333333v128h128v85.333333h-128V512h-85.333333z"  horiz-adv-x="1024" />
      
      <glyph glyph-name="mp" unicode="&#58896;" d="M323.43819053 745.68905347c-94.69578708-2.15366033-170.94095343-78.41747242-173.07130518-173.1132595L146.07821121 381.66919913000004l4.23273532-188.32872931c2.14433707-95.48359826 79.60151899-172.07838364 175.1037638-173.15055258l188.91609055-2.1210293 188.91609136 2.1210293c95.50224481 1.07216812 172.95942673 77.66695432 175.10376379 173.15055258l4.2327345 188.3287293-4.2886733 190.79005518c-2.12569052 94.73308017-78.42679568 171.01553879-173.15987586 173.11792072l-195.45165774 4.34461377-186.24499311-4.23273532zM322.1702345 801.6142956799999L509.66919913 805.875l196.71028966-4.37258276c124.64658188-2.76899139 225.03884656-103.13794913 227.84046983-227.78453019L938.53660257 381.66919913000004l-4.26070514-189.58736206c-2.82493103-125.63484137-104.74153967-226.41401899-230.40435086-227.8264845L514.33080087-37.875l-189.54074569 2.13035257C199.12724482-34.33218191000003 97.21063535 66.4469957 94.38104309 192.08183707L90.125 381.66919913000004l4.31664395 192.16056637C97.24326639 698.43439224 197.57493103 798.7800413800001 322.1702345 801.6142956799999z m348.50604308-195.3957181c-8.33494482 18.04972412-33.98308017 18.04972412-42.31802499 0l-16.41816292-35.54937845a23.30334915 23.30334915 0 0 0-12.75880518-11.96633277l-33.25586984-12.8520379c-19.87241033-7.68232068-19.87241033-35.80110516 0-43.48342502l33.25586984-12.85203708a23.30801121 23.30801121 0 0 0 12.75880518-11.96633358l16.41816292-35.54937845c8.33494482-18.04972412 33.98308017-18.04972412 42.31802499 0l16.41816294 35.54937845a23.30801121 23.30801121 0 0 0 12.75880518 11.96633358l33.25587066 12.85203708c19.87241033 7.68232068 19.87241033 35.80110516 0 43.48342502l-33.25587066 12.8520379a23.30334915 23.30334915 0 0 0-12.75880518 11.96633277l-16.41816294 35.54937845zM308.39053879 438.16781809c5.83632586 12.63294223 23.79281809 12.63294223 29.62914312 0l10.10635429-21.88622242a16.31560776 16.31560776 0 0 1 8.93162932-8.37689914l19.99827412-7.72893704c13.91488275-5.37948879 13.91488275-25.06077329 0-30.44026208l-19.99827412-7.72893704a16.31560776 16.31560776 0 0 1-8.93162932-8.37689915l-10.10635429-21.88622158c-5.83632586-12.63294223-23.79281809-12.63294223-29.62914312 0l-10.10635346 21.88622158a16.31560776 16.31560776 0 0 1-8.93163015 8.37689915l-19.99827329 7.72893704c-13.91488275 5.37948879-13.91488275 25.06077329 0 30.44026208l19.99827329 7.72893704a16.31560776 16.31560776 0 0 1 8.93163015 8.37689914l10.10635346 21.88622242z m286.01726468-163.15607758c-5.83632586 12.63294223-23.79281809 12.63294223-29.62914313 0l-10.10635346-21.88622242a16.30628449 16.30628449 0 0 0-8.92696811-8.37689913l-20.00293533-7.72893705c-13.91488275-5.37948879-13.91488275-25.06077329 0-30.44026208l19.99827329-7.72893622a16.30628449 16.30628449 0 0 0 8.93163015-8.37689914l10.10635346-21.88622241c5.83632586-12.63294223 23.79281809-12.63294223 29.62914313 0l10.10635427 21.88622241a16.30628449 16.30628449 0 0 0 8.92696812 8.37689914l20.00293451 7.72893622c13.91488275 5.37948879 13.91488275 25.06077329 0 30.44026208l-19.99827329 7.72893705a16.30162327 16.30162327 0 0 0-8.93162934 8.37689913l-10.10635427 21.88622242z"  horiz-adv-x="1029" />
      
      <glyph glyph-name="more" unicode="&#59053;" d="M243.2 384m-83.2 0a1.3 1.3 0 1 0 166.4 0 1.3 1.3 0 1 0-166.4 0ZM512 384m-83.2 0a1.3 1.3 0 1 0 166.4 0 1.3 1.3 0 1 0-166.4 0ZM780.8 384m-83.2 0a1.3 1.3 0 1 0 166.4 0 1.3 1.3 0 1 0-166.4 0Z"  horiz-adv-x="1024" />
      
      <glyph glyph-name="darkroom" unicode="&#59230;" d="M960 807.936c0 12.8-10.24 23.552-23.04 24.064H89.088l-1.536-0.512c-20.992-9.728-23.552-28.16-23.552-40.96 0.512-220.672 0-444.928 0-661.504v-151.552c0-28.672 11.776-40.96 40.96-40.96h813.568c12.8 0 31.232 2.56 40.96 23.552l0.512 1.536V806.912v1.024z m-346.624-339.968c12.288 26.624 11.776 58.368 0 86.528-11.776 27.648-34.304 49.152-61.952 58.88-6.144 2.048-6.656 3.072-6.656 9.216 0.512 36.864 0.512 74.24 0.512 110.592v31.744h140.288v-425.984c-36.352 37.888-79.36 61.44-129.024 71.168 25.6 12.288 44.544 31.232 56.832 57.856z m178.176-283.136c-11.776 15.36-28.16 23.552-48.128 24.064h-48.64c-31.744-0.512-55.296-19.968-60.416-50.176-3.584-20.48 4.608-40.448 20.48-53.248h-46.592l-1.024 1.024c-14.336 26.112-14.848 58.368-0.512 86.528 13.824 28.16 39.936 47.104 69.12 51.2 8.704 1.024 16.896 1.536 26.112 1.536h48.64V765.44h142.336v-659.456h-90.112v5.12 28.16c0.512 14.336-0.512 31.232-11.264 45.568zM279.04 245.76h11.776c7.168-0.512 14.336-0.512 20.992-0.512 15.36 0 30.208-0.512 44.544-3.584 27.136-6.144 49.664-25.088 61.952-51.2 12.288-27.136 11.776-57.344-1.536-82.944l-2.048-2.048c-13.824-0.512-28.16-0.512-38.4-0.512H368.64c2.048 1.536 3.584 3.072 5.632 5.12 16.384 16.896 20.48 38.912 11.776 60.928-8.704 22.528-26.624 35.328-50.176 36.864-10.24 0.512-20.48 1.024-30.72 1.024-9.728 0-19.968-0.512-29.696-1.024-30.72-2.048-53.76-26.624-54.272-58.368-0.512-11.776 0-23.04 0-34.816v-8.704H131.072V765.44h141.312V245.76h6.656z m200.192 373.248c0-3.072 0-3.072-2.56-4.096-37.376-13.312-64.512-43.52-72.192-80.384-8.192-36.864 4.096-74.752 32.256-101.888 7.68-7.68 17.408-12.8 27.136-17.408 2.048-1.024 3.584-2.048 5.632-3.072-27.648-6.144-50.176-14.848-71.168-26.624-21.504-12.288-40.96-27.136-58.368-45.568V765.952h139.776v-34.816c-1.024-37.376-1.024-74.752-0.512-112.128z"  horiz-adv-x="1024" />
      
      <glyph glyph-name="viber" unicode="&#59833;" d="M512 810.666667c-282.88 0-384-95.573333-384-362.666667 0-183.893333 48.213333-286.72 170.666667-332.8v-136.533333a21.333333 21.333333 0 0 1 21.333333-21.333334h13.226667a21.76 21.76 0 0 1 14.08 5.546667l136.533333 122.453333H512c282.88 0 384 95.573333 384 362.666667S794.88 810.666667 512 810.666667z m-10.666667-279.893334a20.48 20.48 0 0 0 8.106667 16.64 19.626667 19.626667 0 0 0 17.92 4.266667 116.906667 116.906667 0 0 0 88.32-88.32 19.626667 19.626667 0 0 0-4.266667-17.92 20.48 20.48 0 0 0-16.64-8.106667h-21.76a21.333333 21.333333 0 0 0-20.48 15.36 53.76 53.76 0 0 1-35.84 35.84 21.333333 21.333333 0 0 0-15.36 20.48z m157.013334-256a90.026667 90.026667 0 0 0-42.666667-35.413333 49.066667 49.066667 0 0 0-38.826667 0 485.546667 485.546667 0 0 0-246.613333 219.306667 651.093333 651.093333 0 0 0-28.586667 66.56A91.306667 91.306667 0 0 0 298.666667 540.16a66.133333 66.133333 0 0 0 56.32 62.72h8.106666a33.28 33.28 0 0 0 20.906667-8.96 244.906667 244.906667 0 0 0 52.48-72.533333 24.746667 24.746667 0 0 0-6.4-31.146667l-6.4-5.546667a36.693333 36.693333 0 0 1-13.653333-54.613333A177.066667 177.066667 0 0 1 506.026667 341.333333a26.453333 26.453333 0 0 1 31.146666 6.826667l2.986667 3.84c17.066667 28.586667 42.666667 25.6 64.853333 9.386667l42.666667-32.853334c24.32-17.066667 24.32-32.426667 10.666667-55.04z m60.586666 170.666667a21.333333 21.333333 0 0 0-16.213333-7.253333H682.666667a21.76 21.76 0 0 0-21.333334 18.773333A159.573333 159.573333 0 0 1 520.106667 597.333333a21.76 21.76 0 0 0-18.773334 21.333334V640a21.333333 21.333333 0 0 0 7.253334 16.213333 20.053333 20.053333 0 0 0 16.213333 5.12 224.426667 224.426667 0 0 0 200.533333-200.533333 20.053333 20.053333 0 0 0-6.4-16.213333z"  horiz-adv-x="1024" />
      
      <glyph glyph-name="messenger" unicode="&#59395;" d="M512 810.666667C277.333333 810.666667 85.333333 634.026667 85.333333 416 85.333333 293.12 145.92 183.46666700000003 241.066667 110.93333299999995L243.626667-42.66666699999996 390.826667 37.54666699999996 389.546667 37.973333000000025C428.373333 27.306666999999948 469.333333 21.33333300000004 512 21.33333300000004 746.666667 21.33333300000004 938.666667 197.97333300000003 938.666667 416 938.666667 634.026667 746.666667 810.666667 512 810.666667M555.946667 281.17333299999996L449.706667 393.386667 234.666667 281.17333299999996 464.213333 521.386667 574.293333 416 781.226667 521.386667 555.946667 281.17333299999996Z"  horiz-adv-x="1024" />
      
      <glyph glyph-name="kakaoTalk" unicode="&#59235;" d="M512 768c247.424 0 448-156.330667 448-349.226667 0-192.853333-200.576-349.184-448-349.184a576 576 0 0 0-73.685333 4.693334l-188.074667-123.008c-21.376-11.306667-28.928-10.069333-20.138667 17.621333l38.058667 156.928c-122.88 62.293333-204.16 170.24-204.16 292.949333C64 611.626667 264.576 768 512 768z m252.032-343.893333l62.72 60.757333a20.138667 20.138667 0 0 1-27.989333 28.928l-82.261334-79.616V499.968a20.138667 20.138667 0 0 1-40.277333 0v-109.098667a20.096 20.096 0 0 1 0-9.472V320a20.138667 20.138667 0 0 1 40.277333 0v58.154667l18.218667 17.621333 60.928-86.741333a20.138667 20.138667 0 1 1 32.981333 23.168l-64.597333 91.946666z m-126.208-82.090667h-62.293333V499.328a20.138667 20.138667 0 0 1-40.234667 0v-177.450667c0-11.093333 8.96-20.138667 20.096-20.138666h82.432a20.138667 20.138667 0 1 1 0 40.277333z m-249.898667 46.592l29.696 72.832 27.221334-72.832H387.925333z m107.648-20.821333l0.085334 0.682666a20.010667 20.010667 0 0 1-5.418667 13.653334l-44.629333 119.466666a29.44 29.44 0 0 1-26.752 20.224 29.696 29.696 0 0 1-27.861334-19.072l-70.869333-173.866666a20.138667 20.138667 0 0 1 37.290667-15.232l14.08 34.688h88.32l12.757333-34.133334a20.138667 20.138667 0 1 1 37.717333 14.08l-14.72 39.509334zM353.834667 499.114667a20.138667 20.138667 0 0 1-20.096 20.138666H195.285333a20.138667 20.138667 0 1 1 0-40.277333h49.493334v-159.402667a20.138667 20.138667 0 0 1 40.277333 0V478.976h48.64a20.138667 20.138667 0 0 1 20.138667 20.138667z"  horiz-adv-x="1024" />
      
      <glyph glyph-name="signal" unicode="&#60570;" d="M512.512 785.152c-222.72 0-403.285333-166.4-403.285333-371.584 0-128.682667 52.010667-226.176 134.613333-289.024H243.626667l9.984-129.792v-0.170667c0-0.725333 0-1.322667 0.170666-1.962666v-0.256a13.056 13.056 0 0 1 18.986667-9.386667l0.469333 0.341333L396.8 54.741333000000054c36.437333-8.362667 75.392-12.757333 115.626667-12.757333 222.72 0 403.285333 166.357333 403.285333 371.626667 0 205.226667-180.608 371.584-403.370667 371.584l0.170667-0.042667zM443.306667 865.28a557.141333 557.141333 0 0 0 68.48 4.437333c16.213333 0 32-0.853333 47.744-2.218666l2.432 26.197333a558.464 558.464 0 0 1-122.24-2.346667l3.541333-26.112 0.042667 0.042667z m162.005333-4.010667c39.04-7.04 76.16-18.602667 111.36-33.92l10.752 24.192c-5.632 2.389333-11.221333 4.778667-16.938667 7.04-32.512 12.8-66.176 22.357333-100.48 28.629334l-4.693333-25.941334z m391.210667-450.389333a425.386667 425.386667 0 0 0-17.28-113.28l25.173333-7.466667a450.133333 450.133333 0 0 1 18.389333 120.789334l-26.282666-0.042667zM287.786667 818.602667A517.930667 517.930667 0 0 0 398.122667 857.088L392.362667 882.858667a518.869333 518.869333 0 0 1-116.053334-40.533334l11.477334-23.722666z m582.4-59.690667a512.213333 512.213333 0 0 1-99.370667 71.381333l-13.269333-23.082666c34.602667-18.986667 66.602667-41.856 94.890666-68.096l17.749334 19.712v0.085333z m-223.744-803.754667c40.32 10.24 78.72 25.216 114.602666 43.946667l-13.44 22.741333c-33.536-17.621333-69.589333-31.488-107.562666-41.258666l6.4-25.429334zM156.885333 725.12c26.88 27.221333 57.472 51.2 90.88 71.466667l-13.952 22.570666c-29.781333-18.005333-57.6-38.997333-82.986666-62.848-4.352-4.010667-8.533333-8.149333-12.8-12.330666l18.730666-18.816 0.128-0.042667z m831.146667-481.28l-24.234667 10.069333a446.805333 446.805333 0 0 0-57.770666-99.498666l21.12-15.744a470.826667 470.826667 0 0 1 60.757333 105.173333h0.128zM884.309333 706.858667a449.706667 449.706667 0 0 0 65.450667-95.061334l23.68 11.733334a471.552 471.552 0 0 1-69.418667 100.949333l-19.84-17.621333h0.128z m108.970667-128.128l-24.234667-10.410667c13.354667-35.328 22.229333-72.661333 25.770667-111.36l26.24 2.602667a445.610667 445.610667 0 0 1-27.776 119.168zM272.469333-78.89066700000001l-41.344-18.133333-14.165333 43.733333-24.96-8.106666 18.688-57.472a14.08 14.08 0 0 1 7.125333-8.021334 13.013333 13.013333 0 0 1 10.624 0l54.741334 24.021334-10.709334 23.978666z m163.114667 50.901334c-3.328 0.682667-6.698667 1.152-10.112 1.749333l-19.84 3.370667a13.269333 13.269333 0 0 1-7.338667-0.981334l-83.242666-36.394666 11.562666-23.637334 78.72 34.261334c5.333333-0.896 10.666667-1.749333 15.829334-2.517334 2.901333-0.725333 5.930667-1.109333 8.917333-1.621333l5.504 25.770667z m159.061333-0.853334c-27.008-4.437333-54.656-6.656-82.858666-6.656-11.648 0-22.4 0.64-32.938667 1.621334l-0.810667-26.24c10.709333-1.024 21.802667-1.706667 33.749334-1.706667 29.781333 0 59.008 2.474667 87.381333 7.082667l-4.437333 25.856-0.085334 0.042666zM64.725333 592.384c15.786667 35.2 36.352 68.181333 60.8 98.218667l-20.053333 17.365333A464.384 464.384 0 0 1 41.130667 604.4159999999999l-0.426667-0.896 24.021333-11.136zM876.032 119.03999999999996a490.538667 490.538667 0 0 0-88.32-73.728l14.464-21.973333a511.274667 511.274667 0 0 1 93.44 78.037333l-19.584 17.664zM41.386667 275.157333c-8.021333 33.962667-12.501333 71.509333-13.781334 113.962667H1.322667c1.28-45.696 6.186667-85.546667 14.72-121.301333l25.344 7.338666zM22.954667 557.866667c-12.672-38.826667-19.968-79.061333-21.76-120.021334l26.24-1.28a425.301333 425.301333 0 0 0 20.778666 113.578667l-25.258666 7.722667z m179.157333-565.76l-25.173333 77.44a13.056 13.056 0 0 1-4.48 6.272 501.333333 501.333333 0 0 0-28.16 23.808l-18.005334-19.029334c8.277333-7.850667 17.408-15.445333 26.837334-23.082666l23.936-73.258667 25.045333 7.850667z m-89.813333 140.458666a318.421333 318.421333 0 0 0-57.813334 98.773334l-24.448-9.770667a342.016 342.016 0 0 1 62.634667-106.538667l19.626667 17.536z"  horiz-adv-x="1024" />
      
      <glyph glyph-name="zhihu" unicode="&#59516;" d="M564.7 665.9V93h60l25.2-71.4L756.3 93h131.5V665.9H564.7z m247.7-497h-59.9l-75.1-50.4-17.8 50.4h-18V587.7h170.7v-418.8zM526.1 409.1H393.3c2.1 44.9 4.3 104.3 6.6 172.9h130.9l-0.1 8.1c0 0.6-0.2 14.7-2.3 29.1-2.1 15-6.6 34.9-21 34.9H287.8c4.4 20.6 15.7 69.7 29.4 93.8l6.4 11.2-12.9 0.7c-0.8 0-19.6 0.9-41.4-10.6-35.7-19-51.7-56.4-58.7-84.4-18.4-73.1-44.6-123.9-55.7-145.6-3.3-6.4-5.3-10.2-6.2-12.8-1.8-4.9-0.8-9.8 2.8-13 10.5-9.5 38.2 2.9 38.5 3 0.6 0.3 1.3 0.6 2.2 1 13.9 6.3 55.1 25 69.8 84.5h56.7c0.7-32.2 3.1-138.4 2.9-172.9h-141l-2.1-1.5c-23.1-16.9-30.5-63.2-30.8-65.2l-1.4-9.2h167c-12.3-78.3-26.5-113.4-34-127.4-3.7-7-7.3-14-10.7-20.8-21.3-42.2-43.4-85.8-126.3-153.6-3.6-2.8-7-8-4.8-13.7 2.4-6.3 9.3-9.1 24.6-9.1 5.4 0 11.8 0.3 19.4 1 49.9 4.4 100.8 18 135.1 87.6 17 35.1 31.7 71.7 43.9 108.9L497 46l5 12c0.8 1.9 19 46.3 5.1 95.9l-0.5 1.8-108.1 123-22-16.6c6.4 26.1 10.6 49.9 12.5 71.1h158.7v8c0 40.1-18.5 63.9-19.2 64.9l-2.4 3z"  horiz-adv-x="1024" />
      
      <glyph glyph-name="coolapk" unicode="&#58892;" d="M74.97196999 481.09036999c34.04231111 76.21594112 107.52758557 132.7710811 189.32622222 148.30554112 63.47283001 10.92266667 128.52337778-5.76474112 184.22897778-36.34820778 47.27087445-24.09054777 88.95905223-57.58672555 127.12770446-94.17765888-18.38648889-20.93511111-44.47952555-32.8286811-65.41463779-50.91176335-52.4894811 44.2368-109.95484445 88.4129189-179.73854777 99.09286002-89.80859221 14.98832555-180.40604445-56.00900779-193.99869668-144.66465223-9.8910811-52.24675555 11.5294811-107.70963001 51.39721558-142.11603001 45.14702222-39.80705223 110.62234112-50.7297189 167.96633998-35.55934777 65.536 15.83786667 116.02299221 64.92918557 155.70868224 116.93321444 61.53102222 82.04136334 112.86755555 171.12177778 168.20906666 257.28948224 15.83786667 21.78465223 53.94583666 19.6001189 66.81031112-4.36906667 72.39300779-124.03294777 143.45102222-248.85475555 215.72266666-372.94838557 8.61676999-17.17285888 5.03656334-40.71727445-10.92266666-52.4894811-14.86696334-12.07561443-37.92592555-11.65084445-52.48948224 0.78885888-85.86429667 61.59170333-171.66791111 123.30476999-257.35016221 185.1392 21.48124445 17.11217778 43.69066667 33.37481443 65.96076999 49.45540779 27.00325888-14.6849189 49.81949667-37.7438811 79.18933334-47.39223779-23.18032555 45.02565888-49.63745223 88.4129189-75.48776334 131.92154112-48.54518557-67.29576334-87.68474112-141.32716999-140.11353999-206.01363002-54.55265223-71.36142222-131.0113189-132.22494777-222.21558556-145.33214776-44.2368-3.88361443-90.23336334-4.79383666-132.40699221 11.34743666-60.86352555 21.78465223-114.14186667 66.81031111-141.75194112 125.7927111-32.10050333 63.8369189-30.46210333 142.23739221 0.24272554 206.25635556z"  horiz-adv-x="1024" />
      
      <glyph glyph-name="discord" unicode="&#58893;" d="M954.52545166 690.78881836a2.47192383 2.47192383 0 0 1-1.2590332 1.15356445A799.36248779 799.36248779 0 0 1 756.02996826 753.09118653a2.99267578 2.99267578 0 0 1-3.16900634-1.4996338 556.11859131 556.11859131 0 0 1-24.55444336-50.42724609 738.03076172 738.03076172 0 0 1-221.52722168 0 510.10784912 510.10784912 0 0 1-24.94171143 50.42724609 3.11462403 3.11462403 0 0 1-3.1706543 1.49963379 797.09490967 797.09490967 0 0 1-197.23974609-61.15045165 2.82128906 2.82128906 0 0 1-1.29858399-1.11401368C154.50708008 503.22747802 120.09460449 320.24084472000004 136.97619628 139.5201416a3.32226563 3.32226563 0 0 1 1.26068116-2.26593017 803.64880371 803.64880371 0 0 1 241.96014404-122.2597046 3.13110352 3.13110352 0 0 1 3.39971925 1.11401367A573.81591797 573.81591797 0 0 1 433.09619141 96.59765625a3.06518555 3.06518555 0 0 1-1.67926026 4.26489258 529.27679443 529.27679443 0 0 0-75.58813477 36.01263427 3.10638427 3.10638427 0 0 0-0.3048706 5.15148927 413.71270752 413.71270752 0 0 1 15.01116943 11.76141357 2.99761963 2.99761963 0 0 0 3.13110352 0.421875c158.58050537-72.37298584 330.26550293-72.37298584 486.96899414 0a2.98608398 2.98608398 0 0 0 3.1706543-0.38397217 386.49847412 386.49847412 0 0 1 15.04907226-11.7993164 3.10473633 3.10473633 0 0 0-0.26696777-5.15148927 496.70343018 496.70343018 0 0 0-75.62438965-35.97473144 3.08990479 3.08990479 0 0 1-1.64794922-4.30279541 644.43878174 644.43878174 0 0 1 49.46154786-80.44464112 3.07177734 3.07177734 0 0 1 3.39971923-1.15356445A800.98242188 800.98242188 0 0 1 1096.52758789 137.25421143000005a3.10144042 3.10144042 0 0 1 1.26068115 2.22802734c20.21044922 208.9319458-33.83569336 390.41894531-143.26281738 551.30657959zM456.77886963 249.56030273c-47.74438477 0-87.08422852 43.81402588-87.08422851 97.62286378s38.57684326 97.62615967 87.08422851 97.62615966c48.88641357 0 87.84558106-44.19799805 87.08258057-97.62286377 0-53.81213378-38.57849122-97.62615967-87.08258057-97.62615967z m321.97631836 0c-47.74273682 0-87.08258057 43.81402588-87.08258057 97.62286378s38.57684326 97.62615967 87.08258057 97.62615966c48.88970948 0 87.84722901-44.19799805 87.08422852-97.62286377 0-53.81213378-38.19451904-97.62615967-87.08422852-97.62615967z"  horiz-adv-x="1280" />
      
      <glyph glyph-name="scan" unicode="&#58974;" d="M85.333333 341.333333v85.333334h853.333334v-85.333334H85.333333z m597.333334-384v85.333334h170.666666v170.666666h85.333334v-170.666666c0-46.933333-34.133333-85.333333-76.8-85.333334H682.666667z m-341.333334 0H162.133333c-42.666667 0-76.8 38.4-76.8 85.333334v170.666666h85.333334v-170.666666h170.666666v-85.333334z m341.333334 853.333334h179.2c42.666667 0 76.8-38.4 76.8-85.333334v-170.666666h-85.333334V725.333333h-170.666666V810.666667zM341.333333 810.666667v-85.333334H170.666667v-170.666666H85.333333V725.333333c0 46.933333 34.133333 85.333333 76.8 85.333334H341.333333z"  horiz-adv-x="1024" />
      
      <glyph glyph-name="science" unicode="&#59369;" d="M512 874.666667c56.042667 0 102.826667-40.746667 138.389333-108.906667a42.666667 42.666667 0 0 0-75.669333-39.466667C552.32 769.258667 529.28 789.333333 512 789.333333c-42.218667 0-89.024-90.730667-112.597333-224.021333L405.333333 568.746667C638.677333 703.488 872.405333 741.12 936.96 629.333333c26.538667-45.973333 17.173333-103.210667-18.922667-164.202666a42.666667 42.666667 0 0 0-73.429333 43.477333c22.058667 37.248 26.453333 64.213333 18.453333 78.08C833.28 638.144 643.2 607.530667 448 494.826667a1100.245333 1100.245333 0 0 1-61.610667-38.314667 1098.901333 1098.901333 0 0 1 0-145.066667A1105.130667 1105.130667 0 0 1 448 273.152c195.2-112.704 385.301333-143.317333 415.04-91.818667 24.384 42.261333-58.624 160.426667-211.328 265.728a42.666667 42.666667 0 1 0 48.426667 70.250667C887.082667 388.416 993.621333 236.8 936.96 138.666667c-64.533333-111.786667-298.24-74.133333-531.605333 60.586666a1288.96 1288.96 0 0 0-5.930667 3.434667C422.976 69.397333 469.802667-21.333333 512-21.333333c17.472 0 40.789333 20.501333 63.36 64.298666a42.666667 42.666667 0 1 0 75.84-39.125333C615.573333-65.28 568.490667-106.666667 512-106.666667c-109.290667 0-186.453333 158.613333-207.530667 370.816a1011.84 1011.84 0 0 0-76.074666 60.16C171.584 262.613333 145.322667 208.426667 160.981333 181.333333c7.104-12.330667 28.16-21.461333 64.341334-22.869333a42.666667 42.666667 0 0 0-3.370667-85.269333c-62.506667 2.453333-110.506667 23.274667-134.869333 65.493333-37.696 65.28-2.389333 155.050667 80 245.290667C84.693333 474.24 49.365333 564.053333 87.082667 629.333333c22.826667 39.552 66.602667 60.373333 123.52 64.810667a42.666667 42.666667 0 0 0 6.613333-85.077333c-31.530667-2.453333-49.706667-11.093333-56.234667-22.4-15.658667-27.093333 10.602667-81.28 67.434667-142.976a1004.053333 1004.053333 0 0 0 76.053333 60.16C325.546667 716.032 402.709333 874.666667 512 874.666667zM298.666667 390.890667l-0.746667-0.64-7.317333-6.250667c2.666667-2.282667 5.333333-4.586667 8.085333-6.869333L298.666667 384v6.890667z"  horiz-adv-x="1024" />
      
      <glyph glyph-name="right" unicode="&#58890;" d="M822.464 630.656a28.256 28.256 0 0 1-43.072-1.312L426.432 211.68l-181.92 212.992a28.288 28.288 0 0 1-43.104 1.088 37.12 37.12 0 0 1-0.96-48.256L404.544 138.56c5.76-6.752 13.696-10.56 22.016-10.56h0.096a29.088 29.088 0 0 1 22.048 10.656L823.68 582.4c11.52 13.728 11.008 35.328-1.216 48.256"  horiz-adv-x="1024" />
      
      <glyph glyph-name="build" unicode="&#59526;" d="M968.533333 87.466667L578.133333 477.866667c38.4 98.133333 17.066667 215.466667-61.866666 294.4-85.333333 85.333333-213.333333 102.4-315.733334 53.333333l185.6-185.6-130.133333-130.133333-185.6 185.6C21.333333 593.066667 38.4 465.066667 123.733333 379.733333c78.933333-78.933333 196.266667-100.266667 294.4-61.866666l390.4-390.4c17.066667-17.066667 44.8-17.066667 59.733334 0l100.266666 100.266666c17.066667 14.933333 17.066667 42.666667 0 59.733334z"  horiz-adv-x="1024" />
      
      <glyph glyph-name="accessibility" unicode="&#59588;" d="M0 384a512 512 0 1 0 1024 0 512 512 0 1 0-1024 0z m323 172.2c-24.4 10.4-52.6-0.8-63-25.2s0.8-52.6 25.2-63l23.8-10.2c34.6-14.8 70.4-25.8 107.2-32.6v-100.2c0-8.6-1.4-17.2-4.2-25.2l-57.4-172.2c-8.4-25.2 5.2-52.4 30.4-60.8s52.4 5.2 60.8 30.4l48.8 146.4c2.6 7.6 9.6 12.8 17.6 12.8s15.2-5.2 17.6-12.8l48.8-146.4c8.4-25.2 35.6-38.8 60.8-30.4s38.8 35.6 30.4 60.8l-57.4 172.2c-2.8 8.2-4.2 16.6-4.2 25.2v100c36.8 7 72.6 17.8 107.2 32.6l23.8 10.2c24.4 10.4 35.6 38.6 25.2 63s-38.6 35.6-63 25.2l-24-10c-52.2-22.4-108.4-34-165.4-34s-113 11.6-165.4 34l-23.8 10.2zM512 576a80 80 0 1 1 0 160 80 80 0 1 1 0-160z"  horiz-adv-x="1024" />
      
      <glyph glyph-name="theme" unicode="&#59427;" d="M512 853.333333C252.8 853.333333 29.12 642.826667 42.666667 384c18.453333-353.013333 429.546667-149.333333 466.666666-426.666667a47.04 47.04 0 0 1 51.573334-40.213333A469.333333 469.333333 0 0 1 512 853.333333zM375.413333 559.253333A58.666667 58.666667 0 1 0 405.333333 636.746667a58.666667 58.666667 0 0 0-29.92-77.493334z m283.52 81.706667a58.666667 58.666667 0 1 0-10.133333-82.346667 58.666667 58.666667 0 0 0 10.133333 82.346667z m-75.573333 7.786667a58.666667 58.666667 0 1 0-42.666667 71.146666 58.666667 58.666667 0 0 0 42.666667-71.146666z m86.08-561.92a72 72 0 1 0 72 72 72.053333 72.053333 0 0 0-72-72zM785.92 378.66666699999996a58.666667 58.666667 0 1 0 58.666667 58.666666 58.666667 58.666667 0 0 0-58.666667-58.666666z"  horiz-adv-x="1024" />
      
      <glyph glyph-name="campaign" unicode="&#58989;" d="M782.336 430.08v-92.16H962.56v92.16h-180.224z m-90.112-304.57856c43.25376-32.72704 99.57376-76.06272 144.1792-110.14144 18.0224 24.41216 36.0448 49.31584 54.0672 73.728-44.60544 34.07872-100.92544 77.4144-144.1792 110.592-18.0224-24.90368-36.0448-49.7664-54.0672-74.17856zM890.4704 678.912c-18.0224 24.41216-36.0448 49.31584-54.0672 73.728-44.60544-34.11968-100.92544-77.4144-144.1792-110.592 18.0224-24.41216 36.0448-49.31584 54.0672-73.728 43.25376 33.1776 99.57376 76.02176 144.1792 110.592zM151.552 522.24c-49.5616 0-90.112-41.45152-90.112-92.16v-92.16c0-50.70848 40.5504-92.16 90.112-92.16h45.056v-184.32h90.112v184.32h45.056l225.28-138.24V660.48L331.776 522.24H151.552z m226.63168-78.80704L466.944 497.8688v-227.65568L378.18368 324.60799999999995l-21.62688 13.35296H151.552v92.16H356.5568l21.62688 13.35296zM669.696 384a208.4864 208.4864 0 0 1-67.584 154.37824v-308.30592a206.72512 206.72512 0 0 1 67.584 153.92768z"  horiz-adv-x="1024" />
      
      <glyph glyph-name="source" unicode="&#59262;" d="M131.712 512h760.576a42.666667 42.666667 0 0 0 42.538667-46.208l-35.584-426.666667a42.666667 42.666667 0 0 0-42.496-39.125333H167.253333a42.666667 42.666667 0 0 0-42.496 39.125333l-35.584 426.666667A42.666667 42.666667 0 0 0 131.712 512zM206.506667 85.33333300000004h610.986666l28.416 341.333334H178.090667l28.416-341.333334z m365.824 597.333334H853.333333a42.666667 42.666667 0 0 0 42.666667-42.666667v-42.666667H128V725.333333a42.666667 42.666667 0 0 0 42.666667 42.666667h316.330666l85.333334-85.333333z"  horiz-adv-x="1024" />
      
      <glyph glyph-name="study" unicode="&#60413;" d="M512 403.413333C411.093333 497.066667 276.48 554.666667 128 554.666667v-469.333334c148.48 0 283.093333-57.6 384-151.253333C612.906667 27.733333000000016 747.52 85.33333300000004 896 85.33333300000004V554.666667c-148.48 0-283.093333-57.6-384-151.253334zM512 554.666667c70.613333 0 128 57.386667 128 128s-57.386667 128-128 128-128-57.386667-128-128 57.386667-128 128-128z"  horiz-adv-x="1024" />
      
      <glyph glyph-name="bolt" unicode="&#59707;" d="M512 896l-384-640 256 0 0-384 384 640-256 0 0 384z"  horiz-adv-x="1024" />
      
      <glyph glyph-name="settings" unicode="&#59544;" d="M512 234.666667A149.333333 149.333333 0 0 0 362.666667 384 149.333333 149.333333 0 0 0 512 533.333333a149.333333 149.333333 0 0 0 149.333333-149.333333 149.333333 149.333333 0 0 0-149.333333-149.333333m317.013333 107.946666c1.706667 13.653333 2.986667 27.306667 2.986667 41.386667 0 14.08-1.28 28.16-2.986667 42.666667l90.026667 69.546666c8.106667 6.4 10.24 17.92 5.12 27.306667l-85.333333 147.626667c-5.12 9.386667-16.64 13.226667-26.026667 9.386666l-106.24-42.666666c-22.186667 16.64-45.226667 31.146667-72.106667 41.813333l-15.786666 113.066667A21.589333 21.589333 0 0 1 597.333333 810.666667h-170.666666c-10.666667 0-19.626667-7.68-21.333334-17.92l-15.786666-113.066667c-26.88-10.666667-49.92-25.173333-72.106667-41.813333l-106.24 42.666666c-9.386667 3.84-20.906667 0-26.026667-9.386666l-85.333333-147.626667c-5.546667-9.386667-2.986667-20.906667 5.12-27.306667L194.986667 426.666667c-1.706667-14.506667-2.986667-28.586667-2.986667-42.666667 0-14.08 1.28-27.733333 2.986667-41.386667l-90.026667-70.826666c-8.106667-6.4-10.666667-17.92-5.12-27.306667l85.333333-147.626667c5.12-9.386667 16.64-12.8 26.026667-9.386666l106.24 43.093333c22.186667-17.066667 45.226667-31.573333 72.106667-42.24l15.786666-113.066667c1.706667-10.24 10.666667-17.92 21.333334-17.92h170.666666c10.666667 0 19.626667 7.68 21.333334 17.92l15.786666 113.066667c26.88 11.093333 49.92 25.173333 72.106667 42.24l106.24-43.093333c9.386667-3.413333 20.906667 0 26.026667 9.386666l85.333333 147.626667c5.12 9.386667 2.986667 20.906667-5.12 27.306667l-90.026667 70.826666z"  horiz-adv-x="1024" />
      
      <glyph glyph-name="list-alt" unicode="&#59080;" d="M297.984 256H384v-86.016H297.984V256z m0 169.984H384v-84.010667H297.984v84.010667z m0 172.032H384V512H297.984V598.0160000000001zM470.016 256h256v-86.016h-256V256z m0 169.984h256v-84.010667h-256v84.010667z m0 172.032h256V512h-256V598.0160000000001zM857.984 768q13.994667 0 25.984-11.008t11.989333-27.008V37.973333000000025q0-13.994667-11.989333-25.984t-25.984-11.989333H165.973333q-16 0-27.008 11.989333t-11.008 25.984V729.984Q127.957333 768 165.973333 768h692.010667z m-48-86.016H213.973333v-596.010667h596.010667V681.984z"  horiz-adv-x="1024" />
      
      <glyph glyph-name="arrow-double-left" unicode="&#58981;" d="M842.666667 32c-8.533333 0-14.933333 2.133333-21.333334 8.533333l-341.333333 309.333334c-6.4 6.4-10.666667 14.933333-10.666667 23.466666 0 8.533333 4.266667 17.066667 10.666667 23.466667l341.333333 309.333333c12.8 12.8 34.133333 10.666667 44.8-2.133333 12.8-12.8 10.666667-34.133333-2.133333-44.8L548.266667 373.333333l315.733333-285.866666c12.8-10.666667 14.933333-32 2.133333-44.8-6.4-6.4-14.933333-10.666667-23.466666-10.666667zM512 32c-8.533333 0-14.933333 2.133333-21.333333 8.533333L149.333333 349.866667c-6.4 6.4-10.666667 14.933333-10.666666 23.466666 0 8.533333 4.266667 17.066667 10.666666 23.466667L490.666667 706.133333c12.8 12.8 34.133333 10.666667 44.8-2.133333 12.8-12.8 10.666667-34.133333-2.133334-44.8L217.6 373.333333 533.333333 87.466667c12.8-12.8 14.933333-32 2.133334-44.8-6.4-6.4-14.933333-10.666667-23.466667-10.666667z"  horiz-adv-x="1024" />
      
      <glyph glyph-name="arrow-double-right" unicode="&#58982;" d="M544 373.333333c0 8.533333-4.266667 17.066667-10.666667 23.466667L192 706.133333c-12.8 12.8-34.133333 10.666667-44.8-2.133333-12.8-12.8-10.666667-34.133333 2.133333-44.8l315.733334-285.866667L149.333333 87.466667c-12.8-12.8-14.933333-32-2.133333-44.8 6.4-6.4 14.933333-10.666667 23.466667-10.666667 8.533333 0 14.933333 2.133333 21.333333 8.533333l341.333333 309.333334c6.4 6.4 10.666667 14.933333 10.666667 23.466666zM864 396.8l-341.333333 309.333333c-12.8 12.8-34.133333 10.666667-44.8-2.133333-12.8-12.8-10.666667-34.133333 2.133333-44.8l315.733333-285.866667-315.733333-285.866666c-12.8-12.8-14.933333-32-2.133333-44.8 6.4-6.4 14.933333-10.666667 23.466666-10.666667 8.533333 0 14.933333 2.133333 21.333334 8.533333l341.333333 309.333334c6.4 6.4 10.666667 14.933333 10.666667 23.466666 0 8.533333-4.266667 17.066667-10.666667 23.466667z"  horiz-adv-x="1024" />
      
      <glyph glyph-name="accounts" unicode="&#58887;" d="M682.666667 341.33333300000004c-12.373333 0-26.453333 0-41.386667-2.133333C690.773333 303.36 725.333333 256 725.333333 192V85.33333300000004h256v106.666667c0 99.413333-199.253333 149.333333-298.666666 149.333333m-341.333334 0c-99.413333 0-298.666667-49.92-298.666666-149.333333V85.33333300000004h597.333333v106.666667c0 99.413333-199.253333 149.333333-298.666667 149.333333m0 85.333334a128 128 0 0 1 128 128 128 128 0 0 1-128 128 128 128 0 0 1-128-128 128 128 0 0 1 128-128m341.333334 0a128 128 0 0 1 128 128 128 128 0 0 1-128 128 128 128 0 0 1-128-128 128 128 0 0 1 128-128z"  horiz-adv-x="1024" />
      
      <glyph glyph-name="account" unicode="&#58885;" d="M512 725.333333a170.666667 170.666667 0 0 0 170.666667-170.666666 170.666667 170.666667 0 0 0-170.666667-170.666667 170.666667 170.666667 0 0 0-170.666667 170.666667 170.666667 170.666667 0 0 0 170.666667 170.666666m0-426.666666c188.586667 0 341.333333-76.373333 341.333333-170.666667v-85.333333H170.666667v85.333333c0 94.293333 152.746667 170.666667 341.333333 170.666667z"  horiz-adv-x="1024" />
      
      <glyph glyph-name="code" unicode="&#59075;" d="M622.933333 187.73333300000002l196.266667 196.266667-196.266667 196.266667L682.666667 640l256-256-256-256-59.733334 59.733333m-221.866666 0L204.8 384l196.266667 196.266667L341.333333 640l-256-256 256-256 59.733334 59.733333z"  horiz-adv-x="1024" />
      
      <glyph glyph-name="info" unicode="&#59320;" d="M554.666667 512h-85.333334V597.333333h85.333334m0-426.666666h-85.333334v256h85.333334m-42.666667 384A426.666667 426.666667 0 0 1 85.333333 384a426.666667 426.666667 0 0 1 426.666667-426.666667 426.666667 426.666667 0 0 1 426.666667 426.666667A426.666667 426.666667 0 0 1 512 810.666667z"  horiz-adv-x="1024" />
      
      <glyph glyph-name="lock-outline" unicode="&#59356;" d="M512 170.666667a85.333333 85.333333 0 0 0-85.333333 85.333333c0 47.36 37.973333 85.333333 85.333333 85.333333a85.333333 85.333333 0 0 0 85.333333-85.333333 85.333333 85.333333 0 0 0-85.333333-85.333333m256-128V469.333333H256v-426.666666h512m0 512a85.333333 85.333333 0 0 0 85.333333-85.333334v-426.666666a85.333333 85.333333 0 0 0-85.333333-85.333334H256a85.333333 85.333333 0 0 0-85.333333 85.333334V469.333333c0 47.36 37.973333 85.333333 85.333333 85.333334h42.666667V640a213.333333 213.333333 0 0 0 213.333333 213.333333 213.333333 213.333333 0 0 0 213.333333-213.333333v-85.333333h42.666667m-256 213.333333a128 128 0 0 1-128-128v-85.333333h256V640a128 128 0 0 1-128 128z"  horiz-adv-x="1024" />
      
      <glyph glyph-name="credit-card" unicode="&#58969;" d="M853.333333 725.333333L170.666667 725.333333C123.733333 725.333333 85.333333 686.933333 85.333333 640l0-512c0-46.933333 38.4-85.333333 85.333333-85.333333l682.666667 0c46.933333 0 85.333333 38.4 85.333333 85.333333L938.666667 640C938.666667 686.933333 900.266667 725.333333 853.333333 725.333333zM853.333333 128L170.666667 128l0 256 682.666667 0L853.333333 128zM853.333333 554.666667L170.666667 554.666667 170.666667 640l682.666667 0L853.333333 554.666667z"  horiz-adv-x="1024" />
      
      <glyph glyph-name="login" unicode="&#59355;" d="M426.666667 160V298.666667H128v170.666666h298.666667V608L650.666667 384 426.666667 160M341.333333 810.666667h384a85.333333 85.333333 0 0 0 85.333334-85.333334v-682.666666a85.333333 85.333333 0 0 0-85.333334-85.333334H341.333333a85.333333 85.333333 0 0 0-85.333333 85.333334v170.666666h85.333333v-170.666666h384V725.333333H341.333333v-170.666666H256V725.333333a85.333333 85.333333 0 0 0 85.333333 85.333334z"  horiz-adv-x="1024" />
      
      <glyph glyph-name="camera" unicode="&#59012;" d="M170.666667 725.333333h128l85.333333 85.333334h256l85.333333-85.333334h128a85.333333 85.333333 0 0 0 85.333334-85.333333v-512a85.333333 85.333333 0 0 0-85.333334-85.333333H170.666667a85.333333 85.333333 0 0 0-85.333334 85.333333V640a85.333333 85.333333 0 0 0 85.333334 85.333333m341.333333-128a213.333333 213.333333 0 0 1-213.333333-213.333333 213.333333 213.333333 0 0 1 213.333333-213.333333 213.333333 213.333333 0 0 1 213.333333 213.333333 213.333333 213.333333 0 0 1-213.333333 213.333333m0-85.333333a128 128 0 0 0 128-128 128 128 0 0 0-128-128 128 128 0 0 0-128 128 128 128 0 0 0 128 128z"  horiz-adv-x="1024" />
      
      <glyph glyph-name="cart" unicode="&#59021;" d="M725.333333 128c-47.36 0-85.333333-37.973333-85.333333-85.333333a85.333333 85.333333 0 0 1 85.333333-85.333334 85.333333 85.333333 0 0 1 85.333334 85.333334 85.333333 85.333333 0 0 1-85.333334 85.333333M42.666667 810.666667v-85.333334h85.333333l153.6-323.84-58.026667-104.533333c-6.4-11.946667-10.24-26.026667-10.24-40.96a85.333333 85.333333 0 0 1 85.333334-85.333333h512v85.333333H316.586667a10.666667 10.666667 0 0 0-10.666667 10.666667c0 2.133333 0.426667 3.84 1.28 5.12L345.6 341.333333h317.866667c32 0 60.16 17.92 74.666666 43.946667l152.746667 276.053333c2.986667 6.826667 5.12 14.08 5.12 21.333334a42.666667 42.666667 0 0 1-42.666667 42.666666H222.293333l-40.106666 85.333334M298.666667 128c-47.36 0-85.333333-37.973333-85.333334-85.333333a85.333333 85.333333 0 0 1 85.333334-85.333334 85.333333 85.333333 0 0 1 85.333333 85.333334 85.333333 85.333333 0 0 1-85.333333 85.333333z"  horiz-adv-x="1024" />
      
      <glyph glyph-name="cellphone-link" unicode="&#59028;" d="M938.666667 170.666667h-170.666667v298.666666h170.666667m42.666666 85.333334h-256a42.666667 42.666667 0 0 1-42.666666-42.666667v-426.666667a42.666667 42.666667 0 0 1 42.666666-42.666666h256a42.666667 42.666667 0 0 1 42.666667 42.666666V512a42.666667 42.666667 0 0 1-42.666667 42.666667M170.666667 640h768V725.333333H170.666667a85.333333 85.333333 0 0 1-85.333334-85.333333v-469.333333H0v-128h597.333333v128H170.666667V640z"  horiz-adv-x="1024" />
      
      <glyph glyph-name="cloud" unicode="&#59065;" d="M825.6 468.053333A319.573333 319.573333 0 0 1 512 725.333333C388.693333 725.333333 281.6 655.36 228.266667 553.386667A256.170667 256.170667 0 0 1 0 298.666667a256 256 0 0 1 256-256h554.666667a213.333333 213.333333 0 0 1 213.333333 213.333333c0 112.64-87.466667 203.946667-198.4 212.053333z"  horiz-adv-x="1024" />
      
      <glyph glyph-name="refresh" unicode="&#59508;" d="M753.066667 625.066667A339.541333 339.541333 0 0 1 512 725.333333a341.333333 341.333333 0 0 1-341.333333-341.333333 341.333333 341.333333 0 0 1 341.333333-341.333333c159.146667 0 291.84 108.8 329.813333 256h-88.746666A255.573333 255.573333 0 0 0 512 128a256 256 0 0 0-256 256 256 256 0 0 0 256 256c70.826667 0 133.973333-29.44 180.053333-75.946667L554.666667 426.666667h298.666666V725.333333l-100.266666-100.266666z"  horiz-adv-x="1024" />
      
      <glyph glyph-name="history" unicode="&#59295;" d="M469.333333 597.333333v-218.026666l200.96-119.04 33.706667 54.613333-170.666667 101.12V597.333333m0 213.333334C382.72 810.666667 252.16 728.746667 182.186667 607.146667L85.333333 704V426.666667h277.333334L245.333333 544C296.96 651.52 405.333333 725.333333 533.333333 725.333333a320 320 0 0 0 320-320 320 320 0 0 0-320-320c-139.52 0-257.28 89.173333-301.226666 213.333334h-89.6c46.933333-171.946667 203.52-298.666667 390.826666-298.666667 223.573333 0 405.333333 181.333333 405.333334 405.333333A405.333333 405.333333 0 0 1 533.333333 810.666667z"  horiz-adv-x="1024" />
      
      <glyph glyph-name="mastodon" unicode="&#59137;" d="M510.016 767.008c-96.672-0.416-192.64-12.672-242.56-35.68 0 0-107.456-48.928-107.456-215.52 0-198.304-0.16-447.36 178.016-495.488 68.192-18.336 126.88-22.304 174.048-19.584 85.6 4.832 127.936 31.072 127.936 31.072l-2.88 63.264s-55.488-19.552-124.16-17.312c-68.096 2.4-139.808 7.488-150.976 92.48a180.48 180.48 0 0 0-1.472 23.872c144.224-35.808 267.2-15.584 301.056-11.488 94.528 11.488 176.8 70.752 187.296 124.928 16.448 85.376 15.072 208.256 15.072 208.256 0 166.592-107.264 215.52-107.264 215.52-52.64 24.576-150.016 36.064-246.688 35.68z m-103.456-127.072c33.12-0.896 65.856-15.68 86.016-47.008l19.488-33.12 19.424 33.12c40.48 62.944 131.2 59.04 174.4 10.336 39.808-46.336 30.912-76.256 30.912-283.264v-0.064h-78.304v180.128c0 84.32-107.52 87.584-107.52-11.68V384h-77.76v104.384c0 99.264-107.456 96.064-107.456 11.744V320H287.264c0 207.168-8.736 237.28 30.912 283.264 21.76 24.512 55.264 37.568 88.384 36.672z"  horiz-adv-x="1024" />
      
      <glyph glyph-name="at" unicode="&#58938;" d="M743.253333 256c15.786667 38.826667 24.746667 82.346667 24.746667 128 0 165.12-114.773333 298.666667-256 298.666667s-256-133.546667-256-298.666667 114.773333-298.666667 256-298.666667c65.706667 0 128 0 170.666667 33.28v-99.413333c-42.666667-19.2-108.373333-19.2-170.666667-19.2-188.586667 0-341.333333 171.946667-341.333333 384s152.746667 384 341.333333 384 341.333333-171.946667 341.333333-384c0-78.933333-21.333333-152.32-57.6-213.333333H597.333333v64c-27.306667-39.68-64-64-106.666666-64C408.32 170.666667 341.333333 266.24 341.333333 384s66.986667 213.333333 149.333334 213.333333c42.666667 0 79.36-24.32 106.666666-64V554.666667h85.333334v-298.666667h60.586666M512 512c-46.933333 0-85.333333-57.173333-85.333333-128s38.4-128 85.333333-128 85.333333 57.173333 85.333333 128-38.4 128-85.333333 128z"  horiz-adv-x="1024" />
      
      <glyph glyph-name="money" unicode="&#59563;" d="M896 725.333333H128a42.666667 42.666667 0 0 1-42.666667-42.666666v-597.333334a42.666667 42.666667 0 0 1 42.666667-42.666666h768a42.666667 42.666667 0 0 1 42.666667 42.666666V682.666667a42.666667 42.666667 0 0 1-42.666667 42.666666zM341.333333 128a170.666667 170.666667 0 0 1-170.666666 170.666667v170.666666a170.666667 170.666667 0 0 1 170.666666 170.666667h341.333334a170.666667 170.666667 0 0 1 170.666666-170.666667v-170.666666a170.666667 170.666667 0 0 1-170.666666-170.666667z m170.666667 384a128 128 0 1 1 128-128 128 128 0 0 1-128 128z"  horiz-adv-x="1024" />
      
      <glyph glyph-name="small-modal" unicode="&#59495;" d="M896 768a42.666667 42.666667 0 0 0 42.666667-42.666667v-298.666666h-85.333334V682.666667H170.666667v-597.333334h256v-85.333333H128a42.666667 42.666667 0 0 0-42.666667 42.666667V725.333333a42.666667 42.666667 0 0 0 42.666667 42.666667h768z m0-426.666667a42.666667 42.666667 0 0 0 42.666667-42.666666v-256a42.666667 42.666667 0 0 0-42.666667-42.666667h-341.333333a42.666667 42.666667 0 0 0-42.666667 42.666667v256a42.666667 42.666667 0 0 0 42.666667 42.666666h341.333333zM286.165333 627.4986670000001l96-96L469.333333 618.666667V384H234.666667l87.168 87.168-96 96 60.330666 60.330667z"  horiz-adv-x="1024" />
      
      <glyph glyph-name="people-desc" unicode="&#58883;" d="M85.333333 768h853.333334c44.8 0 85.333333-40.533333 85.333333-85.333333v-597.333334c0-44.8-40.533333-85.333333-85.333333-85.333333H85.333333c-44.8 0-85.333333 40.533333-85.333333 85.333333V682.666667c0 44.8 40.533333 85.333333 85.333333 85.333333m512-128v-42.666667h341.333334V640h-341.333334m0-85.333333v-42.666667h341.333334V554.666667h-341.333334m0-85.333334v-42.666666h298.666667v42.666666h-298.666667m-256-166.826666C256 302.506667 85.333333 256 85.333333 170.66666699999996v-42.666667h512v42.666667c0 85.333333-170.666667 131.84-256 131.84M341.333333 640a128 128 0 0 1-128-128 128 128 0 0 1 128-128 128 128 0 0 1 128 128 128 128 0 0 1-128 128z"  horiz-adv-x="1024" />
      
      <glyph glyph-name="uid" unicode="&#59166;" d="M296.96 189.44000000000005c0-35.84-30.72-61.44-61.44-61.44-35.84 0-61.44 30.72-61.44 61.44V727.04H87.04v-532.48c0-81.92 66.56-148.48 148.48-148.48s148.48 66.56 148.48 148.48V727.04H296.96v-537.6zM471.04 727.04h87.04v-680.96H471.04zM788.48 727.04h-148.48v-680.96h148.48c81.92 0 148.48 66.56 148.48 148.48V578.56c0 81.92-66.56 148.48-148.48 148.48z m66.56-537.6c0-35.84-30.72-61.44-61.44-61.44h-61.44V640h61.44c35.84 0 61.44-30.72 61.44-61.44v-389.12z"  horiz-adv-x="1024" />
      
      <glyph glyph-name="verify" unicode="&#59846;" d="M919.893333 437.802667l-58.026666 67.413333c-11.093333 12.8-20.053333 36.693333-20.053334 53.76v72.533333c0 45.226667-37.12 82.346667-82.346666 82.346667h-72.533334c-16.64 0-40.96 8.96-53.76 20.053333l-67.413333 58.026667c-29.44 25.173333-77.653333 25.173333-107.52 0l-66.986667-58.453333c-12.8-10.666667-37.12-19.626667-53.76-19.626667H263.68c-45.226667 0-82.346667-37.12-82.346667-82.346667v-72.96c0-16.64-8.96-40.533333-19.626666-53.333333l-57.6-67.84c-24.746667-29.44-24.746667-77.226667 0-106.666667l57.6-67.84c10.666667-12.8 19.626667-36.693333 19.626666-53.333333v-72.96c0-45.226667 37.12-82.346667 82.346667-82.346667h73.813333c16.64 0 40.96-8.96 53.76-20.053333l67.413334-58.026667c29.44-25.173333 77.653333-25.173333 107.52 0l67.413333 58.026667c12.8 11.093333 36.693333 20.053333 53.76 20.053333h72.533333c45.226667 0 82.346667 37.12 82.346667 82.346667v72.533333c0 16.64 8.96 40.96 20.053333 53.76l58.026667 67.413334c24.746667 29.44 24.746667 78.08-0.426667 107.52z m-230.4 26.88l-206.08-206.08a32 32 0 0 0-45.226666 0l-103.253334 103.253333a32.170667 32.170667 0 0 0 0 45.226667c12.373333 12.373333 32.853333 12.373333 45.226667 0l80.64-80.64 183.466667 183.466666c12.373333 12.373333 32.853333 12.373333 45.226666 0 12.373333-12.373333 12.373333-32.853333 0-45.226666z"  horiz-adv-x="1024" />
      
      <glyph glyph-name="search" unicode="&#60737;" d="M682.666667 277.33333300000004h-34.133334l-12.8 12.8c51.2 59.733333 76.8 140.8 64 226.133334-21.333333 119.466667-119.466667 213.333333-238.933333 226.133333-179.2 25.6-332.8-128-311.466667-307.2 12.8-119.466667 110.933333-217.6 226.133334-238.933333 85.333333-12.8 166.4 12.8 226.133333 64l12.8-12.8v-34.133334l179.2-183.466666c17.066667-17.066667 46.933333-17.066667 64 0s17.066667 46.933333 0 64L682.666667 277.33333300000004z m-256 0c-106.666667 0-192 85.333333-192 192s85.333333 192 192 192 192-85.333333 192-192-85.333333-192-192-192z"  horiz-adv-x="1024" />
      
      <glyph glyph-name="timetable" unicode="&#59630;" d="M597.333333 384h64v-120.32l104.106667-60.16-32-55.466667L597.333333 226.56V384M170.666667 810.666667h597.333333a85.333333 85.333333 0 0 0 85.333333-85.333334v-260.266666c52.906667-53.76 85.333333-127.573333 85.333334-209.066667a298.666667 298.666667 0 0 0-298.666667-298.666667c-81.493333 0-155.306667 32.426667-209.066667 85.333334H170.666667a85.333333 85.333333 0 0 0-85.333334 85.333333V725.333333a85.333333 85.333333 0 0 0 85.333334 85.333334m0-554.666667v-128h199.253333c-18.346667 38.826667-28.586667 82.346667-28.586667 128H170.666667m0 298.666667h256V682.666667H170.666667v-128m597.333333 0V682.666667h-256v-128h256M170.666667 341.333333h183.04c14.506667 49.066667 41.386667 93.013333 77.226666 128H170.666667v-128m469.333333 121.6A206.933333 206.933333 0 0 1 433.066667 256c0-114.346667 92.586667-206.933333 206.933333-206.933333A206.933333 206.933333 0 0 1 846.933333 256c0 114.346667-92.586667 206.933333-206.933333 206.933333z"  horiz-adv-x="1024" />
      
      <glyph glyph-name="filter" unicode="&#59195;" d="M128 810.666667h768v-85.333334h-3.413333L597.333333 430.08v-511.573333l-170.666666 170.666666v341.333334L131.84 725.333333H128V810.666667z"  horiz-adv-x="1024" />
      
      <glyph glyph-name="reply" unicode="&#59513;" d="M426.666667 512V682.666667l-298.666667-298.666667 298.666667-298.666667v174.933334c213.333333 0 362.666667-68.266667 469.333333-217.6-42.666667 213.333333-170.666667 426.666667-469.333333 469.333333z"  horiz-adv-x="1024" />
      
      <glyph glyph-name="time" unicode="&#59626;" d="M512 42.66666699999996a341.333333 341.333333 0 0 0-341.333333 341.333333 341.333333 341.333333 0 0 0 341.333333 341.333333 341.333333 341.333333 0 0 0 341.333333-341.333333 341.333333 341.333333 0 0 0-341.333333-341.333333m0 768A426.666667 426.666667 0 0 1 85.333333 384a426.666667 426.666667 0 0 1 426.666667-426.666667 426.666667 426.666667 0 0 1 426.666667 426.666667A426.666667 426.666667 0 0 1 512 810.666667m180.906667-245.76A253.866667 253.866667 0 0 1 512 640v-256l-180.906667-180.906667a256 256 0 0 1 361.813334 0 255.189333 255.189333 0 0 1 0 361.813334z"  horiz-adv-x="1024" />
      
      <glyph glyph-name="video" unicode="&#59191;" d="M554.666667 512h234.666666L554.666667 746.666667V512M256 810.666667h341.333333l256-256v-512a85.333333 85.333333 0 0 0-85.333333-85.333334H256a85.333333 85.333333 0 0 0-85.333333 85.333334V725.333333c0 47.36 37.973333 85.333333 85.333333 85.333334m469.333333-725.333334v256l-128-93.866666V341.33333300000004H298.666667v-256h298.666666v93.866667l128-93.866667z"  horiz-adv-x="1024" />
      
      <glyph glyph-name="image" unicode="&#59310;" d="M362.666667 320l106.666666-128 149.333334 192 192-256H213.333333m682.666667-42.666667V682.666667a85.333333 85.333333 0 0 1-85.333333 85.333333H213.333333a85.333333 85.333333 0 0 1-85.333333-85.333333v-597.333334a85.333333 85.333333 0 0 1 85.333333-85.333333h597.333334a85.333333 85.333333 0 0 1 85.333333 85.333333z"  horiz-adv-x="1024" />
      
      <glyph glyph-name="file" unicode="&#60250;" d="M256 810.666667C208.853333 810.666667 171.093333 772.48 171.093333 725.333333L170.666667 42.66666699999996c0-47.146667 37.76-85.333333 84.906666-85.333334H768c47.146667 0 85.333333 38.186667 85.333333 85.333334V554.666667L597.333333 810.666667H256z m298.666667-298.666667V746.666667l234.666666-234.666667H554.666667z"  horiz-adv-x="1024" />
      
      <glyph glyph-name="feed" unicode="&#60265;" d="M682.667 768H213.333C166.4 768 128 729.6 128 682.667v-597.334C128 38.4 166.4 0 213.333 0h597.334C857.6 0 896 38.4 896 85.333V554.667L682.667 768z m128-682.667H213.333V682.667H640V512h170.667v-426.667z m-512 85.334h426.666V256H298.667v-85.333zM512 597.333H298.667V512H512v85.333z m-213.333-256h426.666v85.334H298.667v-85.334z"  horiz-adv-x="1024" />
      
      <glyph glyph-name="hot" unicode="&#59199;" d="M499.626667 85.33333300000004c-75.946667 0-136.96 60.16-136.96 133.973334 0 69.12 43.946667 117.76 119.466666 133.12 75.52 15.36 153.6 51.626667 197.12 110.08 16.64-55.04 24.746667-113.066667 24.746667-172.373334 0-112.64-91.306667-204.8-204.373333-204.8M576 867.413333s31.573333-113.066667 31.573333-204.8c0-87.893333-57.6-159.146667-145.493333-159.146666-88.32 0-154.88 71.253333-154.88 159.146666l1.28 15.786667C222.293333 576 170.666667 443.306667 170.666667 298.66666699999996a341.333333 341.333333 0 0 1 341.333333-341.333334 341.333333 341.333333 0 0 1 341.333333 341.333334C853.333333 529.066667 742.826667 733.866667 576 867.413333z"  horiz-adv-x="1024" />
      
      <glyph glyph-name="thumb-up" unicode="&#59622;" d="M981.333333 469.333333a85.333333 85.333333 0 0 1-85.333333 85.333334h-269.653333l40.96 194.986666c0.853333 4.266667 1.28 8.96 1.28 13.653334 0 17.493333-7.253333 33.706667-18.773334 45.226666L604.586667 853.333333 323.84 572.586667C308.053333 556.8 298.666667 535.466667 298.666667 512v-426.666667a85.333333 85.333333 0 0 1 85.333333-85.333333h384c35.413333 0 65.706667 21.333333 78.506667 52.053333l128.853333 300.8c3.84 9.813333 5.973333 20.053333 5.973333 31.146667v85.333333M42.666667 0h170.666666V512H42.666667v-512z"  horiz-adv-x="1024" />
      
      <glyph glyph-name="thumb-up-outline" unicode="&#59623;" d="M213.333333 512v-512H42.666667V512h170.666666m170.666667-512a85.333333 85.333333 0 0 0-85.333333 85.333333V512c0 23.466667 9.386667 44.8 25.173333 60.16L604.586667 853.333333l45.226666-45.226666c11.52-11.52 18.773333-27.306667 18.773334-44.8l-1.28-13.653334L626.773333 554.666667H896a85.333333 85.333333 0 0 0 85.333333-85.333334v-85.333333c0-11.093333-2.133333-21.333333-5.973333-31.146667l-128.853333-300.8C833.706667 21.333333 803.413333 0 768 0H384m0 85.333333h385.28L896 384v85.333333h-375.04l48.213333 226.986667L384 510.72V85.333333z"  horiz-adv-x="1024" />
      
      <glyph glyph-name="pinterest" unicode="&#59467;" d="M565.333333 160c-42.666667 0-83.626667 18.346667-113.066666 49.066667l-50.773334-170.666667-3.413333-11.093333-1.706667 0.853333c-10.666667-17.493333-29.013333-28.16-49.92-28.16-32 0-58.453333 26.453333-58.453333 58.88 0 2.56 0.426667 5.12 0.853333 7.68l-0.853333 0.426667 2.56 9.386666 98.56 296.533334s-10.666667 32.426667-10.666667 78.506666c0 91.733333 49.493333 119.466667 88.746667 119.466667 39.68 0 75.946667-14.08 75.946667-69.973333 0-71.68-47.786667-108.373333-47.786667-159.573334 0-40.106667 32.426667-72.106667 71.68-72.106666 124.586667 0 168.96 93.44 168.96 181.333333 0 116.48-100.693333 210.773333-224 210.773333-123.733333 0-224-94.293333-224-210.773333 0-35.84 10.666667-71.68 29.013333-102.826667 4.693333-8.533333 7.253333-17.92 7.253334-27.733333a53.333333 53.333333 0 0 0-53.333334-53.333333c-18.773333 0-36.266667 10.666667-46.08 26.453333a308.309333 308.309333 0 0 0-43.52 157.44C181.333333 625.92 329.813333 768 512 768s330.666667-142.08 330.666667-317.44c0-139.946667-87.04-290.56-277.333334-290.56z"  horiz-adv-x="1024" />
      
      <glyph glyph-name="image-album" unicode="&#59309;" d="M256 85.333333l128 164.693334 91.306667-110.08 128 164.693333L768 85.333333H256M256 725.333333h213.333333v-341.333333l-106.666666 64L256 384M768 810.666667H256a85.333333 85.333333 0 0 1-85.333333-85.333334v-682.666666a85.333333 85.333333 0 0 1 85.333333-85.333334h512a85.333333 85.333333 0 0 1 85.333333 85.333334V725.333333a85.333333 85.333333 0 0 1-85.333333 85.333334z"  horiz-adv-x="1024" />
      
      <glyph glyph-name="image-multiple" unicode="&#59316;" d="M938.666667 213.333333V725.333333a85.333333 85.333333 0 0 1-85.333334 85.333334H341.333333a85.333333 85.333333 0 0 1-85.333333-85.333334v-512a85.333333 85.333333 0 0 1 85.333333-85.333333h512a85.333333 85.333333 0 0 1 85.333334 85.333333m-469.333334 170.666667l86.613334-115.626667L682.666667 426.666667l170.666666-213.333334H341.333333M85.333333 640v-597.333333a85.333333 85.333333 0 0 1 85.333334-85.333334h597.333333v85.333334H170.666667V640"  horiz-adv-x="1024" />
      
      <glyph glyph-name="vk" unicode="&#60528;" d="M1096.045714 598.820571q13.165714-36.571429-85.723429-168.009143-13.677714-18.285714-37.156571-48.566857-44.544-57.124571-51.419429-74.825143-9.728-23.405714 7.972571-46.299429 9.728-11.995429 46.299429-46.884571l0.585143 0 2.267429-2.267429q80.603429-74.825143 109.129143-126.317714 1.682286-2.852571 3.730286-7.168t4.022857-15.140571-0.292571-19.456-14.262857-15.725714-33.718857-7.168l-146.285714-2.267429q-13.677714-2.852571-32.036571 2.852571t-29.696 12.580571l-11.410286 6.875429q-17.115429 11.995429-40.009143 36.571429t-39.131429 44.251429-34.889143 33.133714-32.256 8.850286q-1.682286-0.585143-4.534857-1.974857t-9.728-8.265143-12.288-16.822857-9.728-29.696-3.730286-44.251429q0-8.557714-1.974857-15.725714t-4.315429-10.605714l-2.267429-2.852571q-10.313143-10.825143-30.281143-12.580571l-65.682286 0q-40.594286-2.267429-83.456 9.435429t-75.117714 30.281143-58.88 37.741714-40.301714 32.841143l-14.262857 13.677714q-5.705143 5.705143-15.725714 17.115429t-40.886857 52.004571-60.562286 86.308571-69.997714 120.539429-74.605714 155.428571q-3.437714 9.142857-3.437714 15.433143t1.682286 9.142857l2.267429 3.437714q8.557714 10.825143 32.548571 10.825143l156.598857 1.170286q6.875429-1.170286 13.165714-3.730286t9.142857-4.827429l2.852571-1.682286q9.142857-6.290286 13.677714-18.285714 11.410286-28.598857 26.258286-59.172571t23.405714-46.592l9.142857-16.603429q16.603429-34.304 32.036571-59.465143t27.721143-39.131429 23.698286-22.016 19.456-7.972571 15.433143 2.852571q1.170286 0.585143 2.852571 2.852571t6.875429 12.580571 7.68 26.843429 5.412571 46.299429 0 71.460571q-1.170286 22.820571-5.12 41.691429t-7.972571 26.258286l-3.437714 6.875429q-14.262857 19.456-48.566857 24.576-7.460571 1.170286 2.852571 13.677714 9.728 10.825143 21.723429 17.115429 30.281143 14.848 136.557714 13.677714 46.884571-0.585143 77.165714-7.460571 11.410286-2.852571 19.163429-7.68t11.702857-13.677714 5.997714-18.285714 1.974857-25.965714-0.585143-31.451429-1.462857-40.301714-0.877714-47.177143q0-6.290286-0.585143-23.990857t-0.292571-27.428571 1.974857-23.113143 6.582857-22.308571 12.873143-13.970286q4.534857-1.170286 9.728-2.267429t14.848 6.290286 21.723429 19.748571 29.696 38.253714 38.838857 61.44q34.304 59.465143 61.147429 128.585143 2.267429 5.705143 5.705143 10.020571t6.290286 5.997714l2.267429 1.682286 2.852571 1.462857t7.460571 1.682286 11.410286 0.292571l164.571429 1.170286q22.308571 2.852571 36.571429-1.462857t17.700571-9.435429z"  horiz-adv-x="1098" />
      
      <glyph glyph-name="linkedin" unicode="&#59031;" d="M260.096 740.352c0-27.307008-9.899008-50.516992-29.696-69.632-19.796992-19.115008-45.396992-28.672-76.8-28.672-30.036992 0-54.612992 9.556992-73.728 28.672-19.115008 19.115008-28.672 42.324992-28.672 69.632 0 28.672 9.556992 52.224 28.672 70.656 19.115008 18.432 44.372992 27.648 75.776 27.648 31.403008 0 56.32-9.216 74.752-27.648 18.432-18.432 28.331008-41.984 29.696-70.656 0 0 0 0 0 0m-202.752-808.96c0 0 0 632.832 0 632.832 0 0 196.608 0 196.608 0 0 0 0-632.832 0-632.832 0 0-196.608 0-196.608 0 0 0 0 0 0 0m313.344 430.08c0 58.708992-1.364992 126.292992-4.096 202.752 0 0 169.984 0 169.984 0 0 0 10.24-88.064 10.24-88.064 0 0 4.096 0 4.096 0 40.96 68.267008 105.812992 102.4 194.56 102.4 68.267008 0 123.220992-22.868992 164.864-68.608 41.643008-45.739008 62.464-113.664 62.464-203.776 0 0 0-374.784 0-374.784 0 0-196.608 0-196.608 0 0 0 0 350.208 0 350.208 0 91.476992-33.451008 137.216-100.352 137.216-47.787008 0-81.236992-24.576-100.352-73.728-4.096-8.192-6.144-24.576-6.144-49.152 0 0 0-364.544 0-364.544 0 0-198.656 0-198.656 0 0 0 0 430.08 0 430.08 0 0 0 0 0 0"  horiz-adv-x="1024" />
      
      <glyph glyph-name="douban" unicode="&#59016;" d="M134.328 720.926h755.344c17.906 0 32.423 14.516 32.423 32.423V799.361c0 17.906-14.516 32.423-32.423 32.423H134.328c-17.906 0-32.423-14.516-32.423-32.423v-46.013c0-17.906 14.516-32.422 32.423-32.422zM915.09 47.074H750.625c-25.134 0-40.706 27.264-27.907 48.895 18.217 30.788 36.946 63.062 56.04 96.593l10.294 18.094-110.396 59.019-8.895-19.836c-27.019-60.309-57.356-122.542-90.375-185.374-5.609-10.673-16.753-17.39-28.81-17.39H427.629l38.457 27.173-9.515 16.088c-32.201 54.491-66.871 110.065-103.045 165.19l-11.271 17.183-91.062-61.579 10.716-16.655c19.594-30.452 39.574-63.579 59.721-99.012 12.262-21.565-3.438-48.389-28.245-48.389H108.91c-17.906 0-32.422-14.516-32.422-32.423v-46.013c0-17.906 14.516-32.423 32.422-32.423h806.18c17.906 0 32.422 14.516 32.422 32.423v46.013c0.001 17.907-14.515 32.423-32.422 32.423zM215.69 645.543c-17.906 0-32.423-14.516-32.423-32.423v-284.832c0-17.906 14.516-32.423 32.423-32.423h590.087c17.906 0 32.423 14.516 32.423 32.423V613.12c0 17.906-14.516 32.423-32.423 32.423H215.69z m516.706-211.782c0-17.906-14.516-32.423-32.423-32.423H321.48c-17.906 0-32.423 14.516-32.423 32.423v70.401c0 17.906 14.516 32.423 32.423 32.423h378.494c17.906 0 32.423-14.516 32.423-32.423v-70.401z"  horiz-adv-x="1024" />
      
      <glyph glyph-name="library-books" unicode="&#59348;" d="M810.666667 597.333333H384V682.666667h426.666667m-170.666667-426.666667H384v85.333333h256m170.666667 85.333334H384V512h426.666667m42.666666 298.666667H341.333333a85.333333 85.333333 0 0 1-85.333333-85.333334v-512a85.333333 85.333333 0 0 1 85.333333-85.333333h512a85.333333 85.333333 0 0 1 85.333334 85.333333V725.333333a85.333333 85.333333 0 0 1-85.333334 85.333334M170.666667 640H85.333333v-597.333333a85.333333 85.333333 0 0 1 85.333334-85.333334h597.333333v85.333334H170.666667V640z"  horiz-adv-x="1024" />
      
      <glyph glyph-name="line" unicode="&#59037;" d="M715.668 527.184v-48.265h83.658c6.434 0 11.263-1.609 14.478-4.827s4.827-6.434 4.827-11.263c0-4.827-1.609-8.043-4.827-11.263-3.219-3.219-8.043-4.827-14.478-4.827h-83.658v-56.308h93.309c6.434 0 11.263-1.609 14.478-4.827s4.827-6.434 4.827-11.263c0-4.827-1.609-8.043-4.827-11.263-3.219-3.219-8.043-4.827-14.478-4.827h-109.398c-8.043 0-14.478 1.609-19.305 6.434-3.219 3.219-6.434 9.653-6.434 19.305v149.619c0 6.434 1.609 11.263 3.219 14.478s4.827 6.434 8.043 8.043c3.219 1.609 8.043 3.219 14.478 3.219h106.181c6.434 0 11.263-1.609 14.478-4.827s4.827-6.434 4.827-11.263c0-4.827-1.609-8.043-4.827-11.263-3.219-3.219-8.043-4.827-14.478-4.827h-90.094zM522.612 536.836l77.222-117.441v119.053c0 8.043 1.609 12.87 4.827 17.696 3.219 3.219 8.043 6.434 12.87 6.434 6.434 0 9.653-1.609 14.478-6.434 3.219-3.219 4.827-9.653 4.827-17.696v-157.662c0-17.696-8.043-25.741-20.914-25.741-3.219 0-6.434 0-9.653 1.609-3.219 1.609-4.827 3.219-8.043 4.827-3.219 1.609-4.827 4.827-6.434 8.043s-4.827 6.434-6.434 9.653l-75.615 115.833v-117.441c0-8.043-1.609-12.87-4.827-17.696-3.219-3.219-8.043-6.434-12.87-6.434-6.434 0-9.653 1.609-14.478 6.434-3.219 3.219-4.827 9.653-4.827 17.696v154.447c0 6.434 0 11.263 1.609 16.090s4.827 8.043 8.043 9.653c3.219 3.219 8.043 3.219 12.87 3.219 3.219 0 6.434 0 9.653-1.609 3.219-1.609 4.827-3.219 6.434-4.827 1.609-1.609 3.219-4.827 6.434-8.043 0-3.219 1.609-6.434 4.827-9.653zM392.297 379.173v157.662c0 8.043 1.609 14.478 4.827 17.696 3.219 4.827 8.043 6.434 14.478 6.434s11.263-1.609 14.478-6.434c3.219-4.827 4.827-9.653 4.827-17.696v-157.662c0-8.043-1.609-14.478-4.827-19.305s-8.043-6.434-14.478-6.434-11.263 1.609-14.478 6.434c-3.219 4.827-4.827 11.263-4.827 19.305zM278.076 536.836v-144.794h82.049c6.434 0 11.263-1.609 14.478-4.827s4.827-6.434 4.827-11.263c0-4.827-1.609-9.653-4.827-11.263-3.219-3.219-8.043-4.827-14.478-4.827h-96.527c-8.043 0-14.478 1.609-19.305 6.434-3.219 3.219-6.434 9.653-6.434 19.305v152.836c0 8.043 1.609 14.478 4.827 17.696 3.219 4.827 8.043 6.434 14.478 6.434s11.263-1.609 14.478-6.434c4.827-4.827 6.434-11.263 6.434-19.305zM487.216 100.851s8.043-19.305 1.609-56.308c-3.219-19.305-19.305-37.003-17.696-49.872s19.305-22.523 27.348-19.305c197.884 93.309 353.935 242.926 360.372 249.363 67.569 62.742 107.79 146.399 107.79 236.493 0 199.489-199.489 361.979-444.029 361.979-246.146 0-444.029-162.49-444.029-361.979 0-189.836 180.186-345.891 408.635-360.372z"  horiz-adv-x="1024" />
      
      <glyph glyph-name="wechat" unicode="&#58968;" d="M996.427776 272.146432c0 139.354112-138.063872 251.815936-291.87072 251.815936-162.281472 0-290.656256-112.461824-290.656256-251.815936 0-139.352064 128.374784-251.807744 290.656256-251.807744 35.119104 0 69.031936 11.001856 104.148992 18.331648l92.043264-52.559872-24.2176 88.014848c67.821568 50.122752 119.896064 119.791616 119.896064 198.02112z m-386.338816 45.24032c-16.95744 0-33.906688 15.890432-33.906688 31.77472 0 19.562496 16.95744 35.446784 33.906688 35.446784 25.438208 0 43.599872-15.890432 43.599872-35.446784 0.002048-15.884288-18.161664-31.77472-43.599872-31.77472z m190.144512 0c-18.167808 0-33.910784 15.890432-33.910784 31.77472 0 19.562496 15.745024 35.446784 33.910784 35.446784 24.219648 0 42.387456-15.890432 42.387456-35.446784 0-15.884288-18.169856-31.77472-42.387456-31.77472zM683.97056 543.51872c9.68704 0 20.588544-1.216512 32.700416-3.672064-29.063168 141.809664-178.03264 242.044928-345.155584 242.044928-188.925952 0-343.943168-127.127552-343.943168-293.373952 0-94.130176 50.868224-171.145216 136.855552-232.25344l-35.131392-105.132032 122.318848 62.347264c42.385408-12.232704 75.087872-19.562496 119.90016-19.562496 9.68704 0 20.594688 0 30.27968 1.216512-6.053888 24.45312-9.684992 47.681536-9.684992 73.34912 0 150.355968 127.156224 275.03616 291.86048 275.03616z m-185.2928 91.686912c26.64448 0 43.599872-15.890432 43.599872-42.78272 0-25.675776-16.955392-42.784768-43.599872-42.784768-25.432064 0-49.657856 17.1008-49.657856 42.784768 0 26.894336 24.225792 42.78272 49.657856 42.78272z m-239.794176-85.573632c-25.432064 0-52.076544 17.115136-52.076544 42.79296 0 26.894336 26.64448 42.78272 52.076544 42.78272 24.223744 0 43.599872-15.890432 43.599872-42.78272 0-25.677824-19.376128-42.79296-43.599872-42.79296z"  horiz-adv-x="1024" />
      
      <glyph glyph-name="facebook" unicode="&#59013;" d="M767.414857 889.161143v-150.857143h-89.709714c-70.290286 0-83.419429-33.718857-83.419429-82.285714v-107.995429h167.424l-22.272-169.142857H594.285714v-433.700571H419.437714V378.88H273.737143V548.022857h145.700571V672.585143C419.437714 817.152 508.013714 896 637.147429 896c61.696 0 114.870857-4.571429 130.304-6.838857z"  horiz-adv-x="1024" />
      
      <glyph glyph-name="reddit" unicode="&#58894;" d="M1024 394.9056c0 61.696-52.9408 111.8208-117.9648 111.8208-28.16 0-54.528-9.728-75.776-26.8288l-2.0992-1.2288c-76.7488 46.592-178.4832 76.288-290.9696 80.2816l67.1232 181.0944 167.68-37.9904c0.1024-50.2784 43.2128-91.136 96.256-91.136 53.1456 0 96.3584 40.96 96.3584 91.3408S921.3952 793.6 868.352 793.6c-40.3968 0-74.8544-23.6544-89.1392-57.0368l-198.656 45.0048-82.432-222.208c-117.4016-2.048-223.744-32.1536-303.3088-80.2816a120.32 120.32 0 0 1-76.8 27.648C52.8384 506.7776 0 456.6016 0 394.9568c0-38.144 20.736-73.3696 54.4256-93.9008-2.048-11.1104-3.3792-22.3744-3.3792-33.8432C51.0464 105.728 257.4336-25.6 511.0784-25.6c253.696 0 460.1344 131.328 460.1344 292.7616 0 11.1104-1.1776 22.0672-3.1232 32.8704 34.5088 20.3776 55.9104 56.1152 55.9104 94.8736z m-356.4544-144.7936c-40.0384 0-72.448 30.72-72.448 68.7104 0 37.9392 32.4096 68.7104 72.448 68.7104s72.4992-30.72 72.4992-68.7104c0-37.9904-32.512-68.7104-72.4992-68.7104z m14.3872-117.1968c-2.1504-2.048-54.1184-52.224-171.6736-52.224-118.1696 0-165.376 50.7904-167.424 52.992a16.9472 16.9472 0 0 0 2.048 24.7808 19.3536 19.3536 0 0 0 26.112-1.792c1.024-1.1264 40.448-40.96 139.264-40.96 100.5056 0 144.5888 41.216 145.0496 41.6256a19.2512 19.2512 0 0 0 26.112 0.3072 16.896 16.896 0 0 0 0.512-24.7296z m-389.4784 185.9072c0 37.9392 32.4096 68.7104 72.5504 68.7104 39.936 0 72.448-30.72 72.448-68.7104 0-37.9904-32.512-68.7104-72.448-68.7104-40.0896 0-72.5504 30.72-72.5504 68.7104z"  horiz-adv-x="1024" />
      
      <glyph glyph-name="qzone" unicode="&#60532;" d="M1023.36 503.381333c-1.365333 4.224-5.418667 9.514667-14.250667 11.008-8.832 1.536-313.642667 59.989333-313.642666 59.989334s-4.48 0.938667-8.448 2.986666c-3.925333 2.005333-5.418667 7.125333-5.418667 7.125334S531.072 855.210667 526.890667 863.146667C522.666667 871.125333 516.437333 873.301333 512 873.301333c-4.437333 0-10.709333-2.176-14.890667-10.154666-4.181333-7.936-154.709333-278.656-154.709333-278.656s-1.493333-5.12-5.461333-7.125334c-3.925333-2.005333-8.405333-2.986667-8.405334-2.986666S23.722667 515.925333 14.848 514.432c-8.874667-1.536-12.885333-6.826667-14.208-11.008a20.352 20.352 0 0 1 5.333333-19.157333l228.778667-234.24s3.072-3.413333 5.077333-7.338667c0.682667-4.437333 0.213333-8.96 0.213334-8.96s-50.730667-308.992-52.053334-317.866667 3.2-15.744 6.784-18.346666c3.541333-2.645333 9.941333-4.522667 17.962667-0.554667 8.064 3.968 290.645333 139.136 290.645333 139.136s4.181333 1.877333 8.576 2.602667c4.394667 0.725333 8.576-2.602667 8.576-2.602667s282.581333-135.168 290.645334-139.136c8.021333-4.010667 14.421333-2.090667 17.962666 0.554667a19.754667 19.754667 0 0 1 6.784 18.346666c-0.896 5.973333-39.68 242.218667-39.68 242.218667 37.376 23.04 60.8 44.330667 78.890667 74.538667-110.677333-41.344-256.256-73.258667-401.706667-79.616-39.04-1.749333-102.826667-4.138667-148.181333 0.64-28.928 3.029333-49.92 6.144-53.034667 18.688-2.261333 9.173333 2.304 19.626667 23.253334 35.456a112661.333333 112661.333333 0 0 0 122.069333 91.946666c54.826667 41.301333 151.850667 105.386667 151.850667 116.522667 0 12.16-91.477333 33.322667-172.245334 33.322667-82.986667 0-97.066667-5.632-119.936-7.168-20.821333-1.450667-32.810667-0.213333-34.304 5.888-2.56 10.581333 7.808 16.597333 25.088 24.234666 30.250667 13.397333 79.36 25.344 84.650667 26.709334 8.277333 2.218667 131.498667 34.346667 239.701333 22.826666 56.234667-5.973333 138.410667-28.501333 138.410667-54.442666 0-14.592-73.429333-63.744-137.6-110.805334-49.024-35.968-94.592-66.602667-94.592-72.021333 0-14.592 150.741333-52.949333 285.397333-43.093333l0.128 0.938666c2.048 3.925333 5.077333 7.338667 5.077334 7.338667l228.778666 234.24a20.352 20.352 0 0 1 5.418667 19.157333z"  horiz-adv-x="1024" />
      
      <glyph glyph-name="whatsapp" unicode="&#59437;" d="M64.39-62.299999999999955l60.43 222.04a444.896 444.896 0 0 0-60.61 224.91c0 246.85 200.1 446.95 446.95 446.95s446.96-200.1 446.96-446.95-200.1-446.96-446.96-446.96a444.822 444.822 0 0 0-224.81 60.57L64.39-62.299999999999955z m285.47 656.66a42.95 42.95 0 0 1-16.58-4.47 57.818 57.818 0 0 1-13.14-10.19c-5.36-5.05-8.4-9.43-11.67-13.68a121.921 121.921 0 0 1-25.25-75c0.09-21.9 5.81-43.22 14.75-63.15 18.28-40.31 48.36-83 88.09-122.55 9.57-9.52 18.91-19.08 28.97-27.98a422.285 422.285 0 0 1 171.63-91.45l25.43-3.89c8.27-0.44 16.54 0.18 24.85 0.58a88.928 88.928 0 0 1 37.23 10.32c5.86 3.02 11.56 6.3 17.12 9.83 5.55 3.54 1.92 1.25 5.58 4.03 6.04 4.47 9.74 7.64 14.75 12.87 3.71 3.85 6.93 8.36 9.39 13.5 3.49 7.29 6.97 21.19 8.4 32.76 1.07 8.85 0.76 13.68 0.62 16.67-0.18 4.78-4.16 9.74-8.49 11.84l-26.01 11.67s-38.88 16.94-62.62 27.75c-2.5 1.09-5.18 1.71-7.91 1.84a21.607 21.607 0 0 1-16.9-5.68v0.09c-0.22 0-3.22-2.55-35.53-41.7-3.79-5.1-10.3-7.4-16.45-5.81-2.91 0.78-5.76 1.77-8.54 2.95-5.54 2.33-7.46 3.22-11.26 4.87l-0.23 0.09a268.627 268.627 0 0 0-70.17 44.7c-5.63 4.92-10.86 10.28-16.22 15.46a281.623 281.623 0 0 0-45.59 56.67l-2.64 4.25a41.232 41.232 0 0 0-4.56 9.16c-1.7 6.57 2.73 11.85 2.73 11.85s10.86 11.89 15.91 18.33c4.2 5.35 8.13 10.91 11.75 16.67 5.27 8.49 6.93 17.21 4.15 23.96a3695.663 3695.663 0 0 1-38.79 91.22c-2.64 5.99-10.46 10.28-17.56 11.13-2.41 0.27-4.83 0.54-7.24 0.72-6 0.3-12.01 0.24-18.01-0.18v-0.05z m0 0"  horiz-adv-x="1024" />
      
      <glyph glyph-name="close" unicode="&#59063;" d="M810.666667 622.506667L750.506667 682.666667 512 444.16 273.493333 682.666667 213.333333 622.506667 451.84 384 213.333333 145.493333 273.493333 85.333333 512 323.84 750.506667 85.333333 810.666667 145.493333 572.16 384 810.666667 622.506667z"  horiz-adv-x="1024" />
      
      <glyph glyph-name="lock" unicode="&#59353;" d="M512 170.666667a85.333333 85.333333 0 0 1 85.333333 85.333333 85.333333 85.333333 0 0 1-85.333333 85.333333 85.333333 85.333333 0 0 1-85.333333-85.333333 85.333333 85.333333 0 0 1 85.333333-85.333333m256 384a85.333333 85.333333 0 0 0 85.333333-85.333334v-426.666666a85.333333 85.333333 0 0 0-85.333333-85.333334H256a85.333333 85.333333 0 0 0-85.333333 85.333334V469.333333a85.333333 85.333333 0 0 0 85.333333 85.333334h42.666667V640a213.333333 213.333333 0 0 0 213.333333 213.333333 213.333333 213.333333 0 0 0 213.333333-213.333333v-85.333333h42.666667m-256 213.333333a128 128 0 0 1-128-128v-85.333333h256V640a128 128 0 0 1-128 128z"  horiz-adv-x="1024" />
      
      <glyph glyph-name="lock-open" unicode="&#59354;" d="M768 554.666667a85.333333 85.333333 0 0 0 85.333333-85.333334v-426.666666a85.333333 85.333333 0 0 0-85.333333-85.333334H256a85.333333 85.333333 0 0 0-85.333333 85.333334V469.333333a85.333333 85.333333 0 0 0 85.333333 85.333334h384V640a128 128 0 0 1-128 128 128 128 0 0 1-128-128H298.666667a213.333333 213.333333 0 0 0 213.333333 213.333333 213.333333 213.333333 0 0 0 213.333333-213.333333v-85.333333h42.666667m-256-384a85.333333 85.333333 0 0 1 85.333333 85.333333 85.333333 85.333333 0 0 1-85.333333 85.333333 85.333333 85.333333 0 0 1-85.333333-85.333333 85.333333 85.333333 0 0 1 85.333333-85.333333z"  horiz-adv-x="1024" />
      
      <glyph glyph-name="gift" unicode="&#59263;" d="M938.666667 384v-341.333333a85.333333 85.333333 0 0 0-85.333334-85.333334H170.666667a85.333333 85.333333 0 0 0-85.333334 85.333334v341.333333a42.666667 42.666667 0 0 0-42.666666 42.666667V554.666667a85.333333 85.333333 0 0 0 85.333333 85.333333h135.253333A128 128 0 0 0 256 682.666667a128 128 0 0 0 128 128c42.666667 0 80.213333-21.333333 103.68-52.906667v0.426667L512 725.333333l24.32 32.853334v-0.426667C559.786667 789.333333 597.333333 810.666667 640 810.666667a128 128 0 0 0 128-128 128 128 0 0 0-7.253333-42.666667H896a85.333333 85.333333 0 0 0 85.333333-85.333333v-128a42.666667 42.666667 0 0 0-42.666666-42.666667M170.666667 42.666667h298.666666v341.333333H170.666667v-341.333333m682.666666 0v341.333333h-298.666666v-341.333333h298.666666M384 725.333333a42.666667 42.666667 0 0 1-42.666667-42.666666 42.666667 42.666667 0 0 1 42.666667-42.666667 42.666667 42.666667 0 0 1 42.666667 42.666667 42.666667 42.666667 0 0 1-42.666667 42.666666m256 0a42.666667 42.666667 0 0 1-42.666667-42.666666 42.666667 42.666667 0 0 1 42.666667-42.666667 42.666667 42.666667 0 0 1 42.666667 42.666667 42.666667 42.666667 0 0 1-42.666667 42.666666M128 554.666667v-85.333334h341.333333V554.666667H128m426.666667 0v-85.333334h341.333333V554.666667h-341.333333z"  horiz-adv-x="1024" />
      
      <glyph glyph-name="account-delete" unicode="&#58886;" d="M640 298.66666699999996c-113.92 0-341.333333-56.746667-341.333333-170.666667v-85.333333h682.666666v85.333333c0 113.92-227.413333 170.666667-341.333333 170.666667M42.666667 469.333333v-85.333333h341.333333v85.333333m256-85.333333a170.666667 170.666667 0 0 1 170.666667 170.666667 170.666667 170.666667 0 0 1-170.666667 170.666666 170.666667 170.666667 0 0 1-170.666667-170.666666 170.666667 170.666667 0 0 1 170.666667-170.666667z"  horiz-adv-x="1024" />
      
      <glyph glyph-name="peoples-add" unicode="&#58888;" d="M554.666667 341.33333300000004c-85.333333 0-256-42.666667-256-128v-85.333333h512v85.333333c0 85.333333-170.666667 128-256 128m282.453333-6.826666c35.413333-30.72 58.88-70.826667 58.88-121.173334v-85.333333h128v85.333333c0 65.706667-101.12 106.666667-186.88 121.173334M554.666667 426.666667a128 128 0 0 1 128 128 128 128 0 0 1-128 128 128 128 0 0 1-128-128 128 128 0 0 1 128-128m213.333333 0a128 128 0 0 1 128 128 128 128 0 0 1-128 128c-13.653333 0-26.88-2.133333-39.253333-5.973334 24.32-34.56 39.253333-76.8 39.253333-122.026666 0-45.226667-14.933333-87.04-39.253333-121.6 12.373333-4.266667 25.6-6.4 39.253333-6.4M341.333333 469.333333H213.333333V597.333333H128v-128H0v-85.333333h128v-128h85.333333v128h128v85.333333z"  horiz-adv-x="1024" />
      
      <glyph glyph-name="account-add" unicode="&#58889;" d="M640 298.66666699999996c-113.92 0-341.333333-56.746667-341.333333-170.666667v-85.333333h682.666666v85.333333c0 113.92-227.413333 170.666667-341.333333 170.666667m-384 170.666666V597.333333H170.666667v-128H42.666667v-85.333333h128v-128h85.333333v128h128v85.333333m256-85.333333a170.666667 170.666667 0 0 1 170.666667 170.666667 170.666667 170.666667 0 0 1-170.666667 170.666666 170.666667 170.666667 0 0 1-170.666667-170.666666 170.666667 170.666667 0 0 1 170.666667-170.666667z"  horiz-adv-x="1024" />
      
      <glyph glyph-name="email" unicode="&#59155;" d="M853.333333 725.333333H170.666667a85.333333 85.333333 0 0 1-85.333334-85.333333v-512a85.333333 85.333333 0 0 1 85.333334-85.333333h682.666666a85.333333 85.333333 0 0 1 85.333334 85.333333V640a85.333333 85.333333 0 0 1-85.333334 85.333333m0-597.333333H170.666667V554.666667l341.333333-213.333334 341.333333 213.333334v-426.666667m0 512l-341.333333-213.333333-341.333333 213.333333h682.666666z"  horiz-adv-x="1024" />
      
      <glyph glyph-name="level" unicode="&#58957;" d="M135.314286-120.685714c-62.171429 0-109.714286 47.542857-109.714286 109.714285v270.628572c0 62.171429 47.542857 109.714286 109.714286 109.714286s109.714286-47.542857 109.714285-109.714286v-270.628572c0-62.171429-51.2-109.714286-109.714285-109.714285zM515.657143-120.685714c-62.171429 0-109.714286 47.542857-109.714286 109.714285V512c0 62.171429 47.542857 109.714286 109.714286 109.714286s109.714286-47.542857 109.714286-109.714286v-522.971429c0-62.171429-51.2-109.714286-109.714286-109.714285zM896-120.685714c-62.171429 0-109.714286 47.542857-109.714286 109.714285V768c0 62.171429 47.542857 109.714286 109.714286 109.714286s109.714286-47.542857 109.714286-109.714286v-778.971429c0-62.171429-47.542857-109.714286-109.714286-109.714285z"  horiz-adv-x="1024" />
      
      <glyph glyph-name="android" unicode="&#58904;" d="M639.985762 682.57649h-42.661921V725.238411h42.661921m-213.309603-42.661921H384.014238V725.238411h42.661921m235.92042 78.497933L718.483695 859.62346c8.105765 8.105765 8.105765 21.757579 0 30.289964a21.885565 21.885565 0 0 1-30.289963 0l-63.139643-63.139643C590.924553 843.41193 552.528825 853.224172 512 853.224172c-40.955444 0-79.351172-9.812242-113.480709-26.87701L334.95303 889.913424a21.373622 21.373622 0 0 1-29.863345 0c-8.532384-8.532384-8.532384-22.184199 0-30.289964l55.887116-55.887116C297.41054 756.808232 256.028477 682.57649 256.028477 597.252649h511.943046c0 85.323841-42.661921 159.982202-105.374944 206.483695M874.626324 554.590728A63.992881 63.992881 0 0 1 810.633444 490.597848v-298.633444a63.992881 63.992881 0 0 1 63.99288-63.992881 63.992881 63.992881 0 0 1 63.992881 63.992881v298.633444A63.992881 63.992881 0 0 1 874.626324 554.590728m-725.252648 0A63.992881 63.992881 0 0 1 85.380795 490.597848v-298.633444A63.992881 63.992881 0 0 1 149.373676 127.971523 63.992881 63.992881 0 0 1 213.366556 191.964404v298.633444A63.992881 63.992881 0 0 1 149.373676 554.590728M256.028477 127.971523a42.661921 42.661921 0 0 1 42.66192-42.66192h42.661921v-149.316722A63.992881 63.992881 0 0 1 405.345199-128a63.992881 63.992881 0 0 1 63.99288 63.992881V85.309603h85.323842v-149.316722a63.992881 63.992881 0 0 1 63.99288-63.992881 63.992881 63.992881 0 0 1 63.992881 63.992881V85.309603h42.661921a42.661921 42.661921 0 0 1 42.66192 42.66192V554.590728H256.028477v-426.619205z"  horiz-adv-x="1024" />
      
      <glyph glyph-name="apple" unicode="&#58907;" d="M798.293333 64c-35.413333-52.906667-72.96-104.533333-130.133333-105.386667-57.173333-1.28-75.52 33.706667-140.373333 33.706667-65.28 0-85.333333-32.853333-139.52-34.986667-55.893333-2.133333-98.133333 56.32-133.973334 107.946667C181.333333 170.666667 125.44 364.8 200.533333 495.36c37.12 64.853333 103.68 105.813333 175.786667 107.093333 54.613333 0.853333 106.666667-37.12 140.373333-37.12 33.28 0 96.426667 45.653333 162.56 38.826667 27.733333-1.28 105.386667-11.093333 155.306667-84.48-3.84-2.56-92.586667-54.613333-91.733333-162.56 1.28-128.853333 113.066667-171.946667 114.346666-172.373333-1.28-2.986667-17.92-61.44-58.88-120.746667M554.666667 746.666667c31.146667 35.413333 82.773333 62.293333 125.44 64 5.546667-49.92-14.506667-100.266667-44.373334-136.106667-29.44-36.266667-78.08-64.426667-125.866666-60.586667-6.4 49.066667 17.493333 100.266667 44.8 132.693334z"  horiz-adv-x="1024" />
      
      <glyph glyph-name="more-circle" unicode="&#58912;" d="M512 896C229.201 896 0 666.799 0 384s229.201-512 512-512 512 229.201 512 512S794.799 896 512 896zM256 312c-39.799 0-72 32.201-72 72s32.201 72 72 72 72-32.201 72-72-32.201-72-72-72z m256 0c-39.799 0-72 32.201-72 72s32.201 72 72 72 72-32.201 72-72-32.201-72-72-72z m256 0c-39.799 0-72 32.201-72 72s32.201 72 72 72 72-32.201 72-72-32.201-72-72-72z"  horiz-adv-x="1024" />
      
      <glyph glyph-name="link" unicode="&#59352;" d="M451.84 323.84000000000003c17.493333-16.64 17.493333-43.946667 0-60.586667-16.64-16.64-43.946667-16.64-60.586667 0a213.461333 213.461333 0 0 0 0 301.653334l151.04 151.04a213.461333 213.461333 0 0 0 301.653334 0 213.461333 213.461333 0 0 0 0-301.653334l-63.573334-63.573333c0.426667 34.986667-5.12 69.973333-17.066666 103.253333l20.053333 20.48a127.232 127.232 0 0 1 0 180.906667 127.232 127.232 0 0 1-180.906667 0l-150.613333-150.613333a127.232 127.232 0 0 1 0-180.906667m120.32 180.906667c16.64 16.64 43.946667 16.64 60.586667 0a213.461333 213.461333 0 0 0 0-301.653334l-151.04-151.04a213.461333 213.461333 0 0 0-301.653334 0 213.461333 213.461333 0 0 0 0 301.653334l63.573334 63.573333c-0.426667-34.986667 5.12-69.973333 17.066666-103.68l-20.053333-20.053333a127.232 127.232 0 0 1 0-180.906667 127.232 127.232 0 0 1 180.906667 0l150.613333 150.613333a127.232 127.232 0 0 1 0 180.906667 41.514667 41.514667 0 0 0 0 60.586667z"  horiz-adv-x="1024" />
      
      <glyph glyph-name="download" unicode="&#59143;" d="M213.333333 42.666667h597.333334v85.333333H213.333333m597.333334 384h-170.666667V768H384v-256H213.333333l298.666667-298.666667 298.666667 298.666667z"  horiz-adv-x="1024" />
      
      <glyph glyph-name="launch" unicode="&#59342;" d="M597.333333 768v-85.333333h153.173334l-419.413334-419.413334 60.16-60.16L810.666667 622.506667V469.333333h85.333333V768m-85.333333-682.666667H213.333333V682.666667h298.666667V768H213.333333c-47.36 0-85.333333-37.973333-85.333333-85.333333v-597.333334a85.333333 85.333333 0 0 1 85.333333-85.333333h597.333334a85.333333 85.333333 0 0 1 85.333333 85.333333v298.666667h-85.333333v-298.666667z"  horiz-adv-x="1024" />
      
      <glyph glyph-name="chafing-dish" unicode="&#59043;" d="M512 725.333333Q370.602667 725.333333 270.634667 625.365333T170.666667 384q0-141.397333 99.968-241.365333T512 42.66666699999996a42.666667 42.666667 0 1 0 0-85.333334q-86.784 0-166.101333 33.536-76.586667 32.426667-135.594667 91.434667-59.050667 59.050667-91.434667 135.594667Q85.333333 297.25866699999995 85.333333 384q0 86.784 33.536 166.101333 32.426667 76.586667 91.434667 135.594667 59.008 59.050667 135.594667 91.434667Q425.258667 810.666667 512 810.666667a42.666667 42.666667 0 1 0 0-85.333334zM554.666667 192q0 39.509333-22.016 82.602667-14.464 28.330667-55.168 84.309333-44.629333 61.354667-62.165334 95.701333Q384 515.9680000000001 384 576q0 175.701333 108.928 230.144l8.96 4.522667H512q86.784 0 166.101333-33.536 76.586667-32.426667 135.594667-91.434667 59.050667-59.008 91.434667-135.594667Q938.666667 470.741333 938.666667 384q0-86.784-33.536-166.101333-32.426667-76.544-91.434667-135.594667-59.008-59.050667-135.594667-91.434667Q598.741333-42.66666699999996 512-42.66666699999996H331.264l161.664 80.810667Q554.666667 69.03466700000001 554.666667 192z m85.333333 0q0-79.018667-22.016-133.504 75.178667 23.978667 135.381333 84.138667Q853.333333 242.602667 853.333333 384t-99.968 241.365333q-96.085333 96.085333-230.442666 99.84Q469.333333 690.517333 469.333333 576q0-39.509333 22.016-82.602667 14.464-28.330667 55.168-84.309333 44.629333-61.354667 62.165334-95.701333Q640 252.03200000000004 640 192zM896 426.666667v-85.333334a42.666667 42.666667 0 0 1 0-85.333333h42.666667a42.666667 42.666667 0 0 1 42.666666 42.666667v170.666666a42.666667 42.666667 0 0 1-42.666666 42.666667h-42.666667a42.666667 42.666667 0 1 1 0-85.333333zM128 256H85.333333a42.666667 42.666667 0 0 0-42.666666 42.666667v170.666666a42.666667 42.666667 0 0 0 42.666666 42.666667h42.666667a42.666667 42.666667 0 0 0 0-85.333333v-85.333334a42.666667 42.666667 0 0 0 0-85.333333z"  horiz-adv-x="1024" />
      
      <glyph glyph-name="love" unicode="&#59193;" d="M512-14.933332999999948l-61.866667 56.106667c-219.733333 199.466667-364.8 331.093333-364.8 492.16 0 131.626667 103.04 234.666667 234.666667 234.666667 74.24 0 145.493333-34.56 192-88.96 46.506667 54.4 117.76 88.96 192 88.96 131.626667 0 234.666667-103.04 234.666667-234.666667 0-161.066667-145.066667-292.693333-364.8-492.16l-61.866667-56.106667z"  horiz-adv-x="1024" />
      
      <glyph glyph-name="visibility" unicode="&#59308;" d="M512 704C298.666667 704 115.2 571.733333 42.666667 384c72.533333-187.733333 256-320 469.333333-320 213.333333 0 396.8 132.266667 469.333333 320C908.8 571.733333 725.333333 704 512 704zM512 170.666667c-119.466667 0-213.333333 93.866667-213.333333 213.333333s93.866667 213.333333 213.333333 213.333333c119.466667 0 213.333333-93.866667 213.333333-213.333333S631.466667 170.666667 512 170.666667zM512 512c-72.533333 0-128-55.466667-128-128s55.466667-128 128-128c72.533333 0 128 55.466667 128 128S584.533333 512 512 512z"  horiz-adv-x="1024" />
      
      <glyph glyph-name="topics" unicode="&#59085;" d="M384-42.66666699999996a42.666667 42.666667 0 0 0-42.666667 42.666667v128H170.666667a85.333333 85.333333 0 0 0-85.333334 85.333333V725.333333a85.333333 85.333333 0 0 0 85.333334 85.333334h682.666666a85.333333 85.333333 0 0 0 85.333334-85.333334v-512a85.333333 85.333333 0 0 0-85.333334-85.333333h-260.266666l-157.866667-158.293333c-8.533333-8.106667-19.2-12.373333-29.866667-12.373334H384M213.333333 682.666667v-85.333334h597.333334V682.666667H213.333333m0-170.666667v-85.333333h341.333334V512H213.333333m0-170.666667v-85.333333h426.666667v85.333333H213.333333z"  horiz-adv-x="1024" />
      
      <glyph glyph-name="topics-add" unicode="&#60424;" d="M853.333333 810.666667H170.666667C123.52 810.666667 85.76 772.48 85.76 725.333333L85.333333-42.66666699999996l170.666667 170.666667h597.333333c47.146667 0 85.333333 38.186667 85.333334 85.333333V725.333333c0 47.146667-38.186667 85.333333-85.333334 85.333334zM256 298.66666699999996v105.6L549.546667 697.8133330000001a21.248 21.248 0 0 0 30.08 0l75.52-75.52c8.32-8.32 8.32-21.76 0-30.08L361.6 298.66666699999996H256z m512 0H448l85.333333 85.333333h234.666667v-85.333333z"  horiz-adv-x="1024" />
      
      <glyph glyph-name="post-add" unicode="&#60982;" d="M725.333333 75.94666700000005H213.333333V597.333333h298.666667V682.666667H213.333333c-46.933333 0-85.333333-38.4-85.333333-85.333334v-512c0-46.933333 38.4-85.333333 85.333333-85.333333h512c46.933333 0 85.333333 38.4 85.333334 85.333333v298.666667h-85.333334v-308.053333zM810.666667 810.666667h-85.333334v-128h-128c0.426667-0.426667 0-85.333333 0-85.333334h128v-127.573333c0.426667-0.426667 85.333333 0 85.333334 0V597.333333h128V682.666667h-128V810.666667zM298.666667 512h341.333333v-85.333333H298.666667zM298.666667 384v-85.333333h341.333333v85.333333h-128zM298.666667 256h341.333333v-85.333333H298.666667z"  horiz-adv-x="1024" />
      
      <glyph glyph-name="peoples" unicode="&#59370;" d="M533.333333 469.333333c0 70.4-57.6 128-128 128s-128-57.6-128-128 57.6-128 128-128 128 57.6 128 128z m-128-42.666666c-23.466667 0-42.666667 19.2-42.666666 42.666666s19.2 42.666667 42.666666 42.666667 42.666667-19.2 42.666667-42.666667-19.2-42.666667-42.666667-42.666666z m277.333334-85.333334c47.36 0 85.333333 37.973333 85.333333 85.333334 0 47.36-37.973333 85.333333-85.333333 85.333333-47.36 0-85.76-37.973333-85.333334-85.333333 0-47.36 37.973333-85.333333 85.333334-85.333334zM511.573333 810.24c-235.52 0-426.666667-191.146667-426.666666-426.666667s191.146667-426.666667 426.666666-426.666666 426.666667 191.146667 426.666667 426.666666-191.146667 426.666667-426.666667 426.666667zM249.173333 165.54666699999996c29.013333 23.04 96.853333 47.36 156.16 47.36 2.986667 0 6.4-0.426667 9.813334-0.426667 10.24 27.306667 28.586667 55.04 55.466666 79.36A386.133333 386.133333 0 0 1 405.333333 298.66666699999996c-55.466667 0-144.64-19.2-201.813333-61.013334-21.333333 44.373333-33.28 93.866667-33.28 146.346667 0 188.16 153.173333 341.333333 341.333333 341.333333s341.333333-153.173333 341.333334-341.333333c0-51.2-11.52-99.84-32-143.786667-42.666667 25.173333-100.693333 37.12-138.24 37.12-64.853333 0-192-34.56-192-115.2v-118.613333a338.56 338.56 0 0 0-241.493334 122.026667z"  horiz-adv-x="1024" />
      
      <glyph glyph-name="qq" unicode="&#59030;" d="M504.746667 832c199.765333 0 280.96-172.928 280.96-345.002667 0-10.197333-0.469333-29.994667-0.512-31.146666l40.32-100.650667h-0.042667c11.093333-28.8 21.973333-58.794667 29.952-84.48 38.101333-122.624 25.770667-173.354667 16.384-174.506667-20.181333-2.432-78.506667 92.288-78.506667 92.288 0-54.826667-28.202667-126.421333-89.301333-178.133333l-3.413333 1.066667c23.424-6.997333 53.376-18.261333 72.277333-32.256 16.213333-11.946667 14.165333-24.106667 11.264-29.013334-12.8-21.589333-219.648-13.781333-279.381333-7.082666l-3.413334-0.384c-63.872-6.613333-263.338667-13.738667-275.925333 7.466666-2.901333 4.906667-4.949333 17.066667 11.264 29.013334 18.901333 13.994667 48.853333 25.258667 72.277333 32.256l-3.413333-1.066667c-61.141333 51.712-89.386667 123.306667-89.386667 178.133333 0 0-58.325333-94.72-78.506666-92.288-9.386667 1.152-21.76 51.882667 16.384 174.506667 7.978667 25.685333 18.901333 55.68 29.952 84.48l40.277333 100.608v0.554667c-0.085333 3.413333-0.512 21.162667-0.512 30.677333 0 172.032 81.237333 344.96 281.002667 344.96z"  horiz-adv-x="1024" />
      
      <glyph glyph-name="topic" unicode="&#59327;" d="M512 810.666667A426.666667 426.666667 0 0 1 146.773333 163.41333299999997L108.586667 34.13333299999999a42.666667 42.666667 0 0 1 53.546666-53.546666l129.28 38.186666A426.666667 426.666667 0 1 1 512 810.666667z m0-768a339.413333 339.413333 0 0 0-182.613333 52.906666 64 64 0 0 1-52.053334 7.68l-64-18.986666 18.986667 64a64 64 0 0 1-7.68 52.906666A341.333333 341.333333 0 1 0 512 42.66666699999996zM704 512h-40.746667l5.76 32.64a42.666667 42.666667 0 0 1-34.56 49.493333 42.666667 42.666667 0 0 1-49.493333-34.56L576 512h-83.413333l5.76 32.64a42.666667 42.666667 0 0 1-34.56 49.493333 42.666667 42.666667 0 0 1-49.493334-34.56L405.333333 512h-42.666666a42.666667 42.666667 0 0 1 0-85.333333h28.16l-14.933334-85.333334H320a42.666667 42.666667 0 0 1 0-85.333333h40.746667l-5.76-32.64a42.666667 42.666667 0 0 1 34.56-49.493333 42.666667 42.666667 0 0 1 49.493333 34.56L448 256h84.053333l-5.76-32.64a42.666667 42.666667 0 0 1 34.56-49.493333 42.666667 42.666667 0 0 1 49.493334 34.56L618.666667 256h42.666666a42.666667 42.666667 0 0 1 0 85.333333h-28.16l14.933334 85.333334H704a42.666667 42.666667 0 0 1 0 85.333333z m-157.44-170.666667h-84.053333l14.933333 85.333334h84.053333z"  horiz-adv-x="1024" />
      
      <glyph glyph-name="account-check" unicode="&#58884;" d="M384 682.666667a149.333333 149.333333 0 0 0 149.333333-149.333334A149.333333 149.333333 0 0 0 384 384a149.333333 149.333333 0 0 0-149.333333 149.333333A149.333333 149.333333 0 0 0 384 682.666667m0-373.333334c165.12 0 298.666667-66.986667 298.666667-149.333333V85.333333H85.333333v74.666667c0 82.346667 133.546667 149.333333 298.666667 149.333333m341.333333 46.506667l-117.333333 128 49.493333 49.493333L725.333333 465.493333l153.173334 153.173334 49.493333-60.16L725.333333 355.84z"  horiz-adv-x="1024" />
      
      <glyph glyph-name="checkbox-marked" unicode="&#59039;" d="M853.333333 384a341.333333 341.333333 0 0 0-341.333333-341.333333 341.333333 341.333333 0 0 0-341.333333 341.333333 341.333333 341.333333 0 0 0 341.333333 341.333333c32.426667 0 64-4.693333 93.866667-13.226666l66.986666 66.986666A419.072 419.072 0 0 1 512 810.666667 426.666667 426.666667 0 0 1 85.333333 384a426.666667 426.666667 0 0 1 426.666667-426.666667 426.666667 426.666667 0 0 1 426.666667 426.666667M337.493333 465.92L277.333333 405.333333 469.333333 213.33333300000004 896 640l-60.16 60.586667L469.333333 334.08000000000004l-131.84 131.84z"  horiz-adv-x="1024" />
      
      <glyph glyph-name="credit" unicode="&#59244;" d="M704.512-73.21600000000001c-71.68 0-132.096 12.8-175.616 37.376-39.424 22.016-61.952 53.248-61.952 84.992V358.4c0 31.744 22.528 62.976 61.952 84.992 43.52 24.576 103.936 37.376 175.616 37.376 71.68 0 132.096-12.8 175.616-37.376 39.424-22.016 61.952-53.248 61.952-84.992v-317.44h-0.512c-3.072-29.696-25.088-57.344-62.464-77.824-43.008-24.064-103.424-36.352-174.592-36.352z m-163.84 121.856c0-10.24 50.688-48.64 163.84-48.64s163.84 38.912 163.84 48.64V112.63999999999999c-42.496-20.48-98.816-31.232-163.84-31.232s-121.344 10.752-163.84 31.232v-64z m0 155.136c0-10.24 50.688-48.64 163.84-48.64 60.928 0 101.376 11.264 124.928 20.992 29.696 12.288 38.912 24.576 38.912 28.16v64c-42.496-20.48-98.816-31.232-163.84-31.232s-121.344 10.752-163.84 31.232v-64.512z m163.84 203.776c-113.152 0-163.84-38.912-163.84-48.64s50.688-48.64 163.84-48.64 163.84 38.912 163.84 48.64-50.688 48.64-163.84 48.64z m-273.92-387.584c-168.96 0-348.672 59.392-348.672 169.472V671.744c0 110.08 179.712 169.472 348.672 169.472 168.96 0 348.672-59.392 348.672-169.472v-182.784h-73.216V564.2239999999999C642.048 525.8240000000001 538.112 501.76 430.592 501.76c-107.008 0-211.456 23.552-275.456 62.464v-133.632c0-39.424 107.52-96.256 275.456-96.256h6.144V261.12h-6.144c-107.008 0-211.456 23.552-275.456 62.464V189.44000000000005c0-39.424 107.52-96.256 275.456-96.256h6.144v-73.216h-6.144z m0 748.032c-167.936 0-275.456-56.832-275.456-96.256 0-39.424 107.52-96.256 275.456-96.256s275.456 56.832 275.456 96.256c0 39.424-107.008 96.256-275.456 96.256z"  horiz-adv-x="1024" />
      
      <glyph glyph-name="arrow-down" unicode="&#58921;" d="M469.333333 725.333333h85.333334v-512l234.666666 234.666667 60.586667-60.586667L512 49.493333l-337.92 337.92L234.666667 448 469.333333 213.333333V725.333333z"  horiz-adv-x="1024" />
      
      <glyph glyph-name="arrow-left" unicode="&#58924;" d="M853.333333 426.666667v-85.333334H341.333333l234.666667-234.666666-60.586667-60.586667L177.493333 384l337.92 337.92L576 661.333333 341.333333 426.666667h512z"  horiz-adv-x="1024" />
      
      <glyph glyph-name="arrow-right" unicode="&#58930;" d="M170.666667 426.666667v-85.333334h512l-234.666667-234.666666 60.586667-60.586667L846.506667 384l-337.92 337.92L448 661.333333 682.666667 426.666667H170.666667z"  horiz-adv-x="1024" />
      
      <glyph glyph-name="arrow-up" unicode="&#58933;" d="M554.666667 42.666667h-85.333334V554.666667l-234.666666-234.666667-60.586667 60.586667L512 718.506667l337.92-337.92-60.586667-60.586667L554.666667 554.666667v-512z"  horiz-adv-x="1024" />
      
      <glyph glyph-name="star-half" unicode="&#59582;" d="M512 218.026667v396.8l72.96-172.373334 186.88-15.786666-141.653333-122.88 42.24-182.613334M938.666667 480.426667l-306.773334 26.026666L512 789.333333 392.106667 506.453333 85.333333 480.426667l232.533334-201.813334-69.546667-299.946666L512 137.813333l263.68-159.146666-69.973333 299.946666L938.666667 480.426667z"  horiz-adv-x="1024" />
      
      <glyph glyph-name="star" unicode="&#59583;" d="M512 159.146667L775.68 0l-69.973333 299.946667L938.666667 501.76l-306.773334 26.453333L512 810.666667 392.106667 528.213333 85.333333 501.76l232.533334-201.813333L248.32 0 512 159.146667z"  horiz-adv-x="1024" />
      
      <glyph glyph-name="star-outline" unicode="&#59584;" d="M512 239.36l-160.426667-96.853333 42.24 182.613333-141.653333 122.88 186.88 15.786667L512 636.16l72.96-172.373333 186.88-15.786667-141.653333-122.88 42.24-182.613333M938.666667 501.76l-306.773334 26.026667L512 810.666667 392.106667 527.786667 85.333333 501.76l232.533334-201.813333L248.32 0 512 159.146667 775.68 0l-69.973333 299.946667L938.666667 501.76z"  horiz-adv-x="1024" />
      
      </font>
</defs>
</svg>
